微博 微信

Hao4K影音

[美剧] 我买了一个农场4k Clarksons.Farm.S01.2160p美剧下载

7 小时前 14477 7 |只看大图 回帖奖励 |倒序浏览 |阅读模式

大红色 帖主

7 天前

电视剧频道
电视剧封面:
电视剧名: 我买了一个农场4k
年  代: 2021  
国  家: 英国
类  别: 真人秀 
语  言: 英语
字  幕: 英文原版
上映日期: 2021-06-11
文件格式: mkv    
视频效果: 4K(3840x2160)    
资源大小: 49.63 GB
片  长: 60 分钟
导  演: -
剧情简介: 着眼于杰瑞米·克拉克森在农村经营农场的糟糕尝试。
I Bought the Farm/我买了一个农场4k Clarksons.Farm.S01.2160p.AMZN.WEBRip.DDP5.1.x265-4k英剧信息
  1. Video
  2. ID : 1
  3. Format : HEVC
  4. Format/Info : High Efficiency Video Coding
  5. Format profile : Main@L5@Main
  6. Codec ID : V_MPEGH/ISO/HEVC
  7. Duration : 53 min 30 s
  8. Bit rate : 14.2 Mb/s
  9. Width : 3 840 pixels
  10. Height : 2 160 pixels
  11. Display aspect ratio : 16:9
  12. Frame rate mode : Constant
  13. Frame rate : 25.000 FPS
  14. Standard : NTSC
  15. Color space : YUV
  16. Chroma subsampling : 4:2:0
  17. Bit depth : 8 bits
  18. Bits/(Pixel*Frame) : 0.069
  19. Stream size : 5.31 GiB (96%)
  20. Writing library : x265 2.9_elemental+1-9e0607aa5b6f:[Linux][GCC 4.8.5][64 bit] 8bit+10bit+12bit
  21. Encoding settings : cpuid=1111039 / frame-threads=2 / wpp / no-pmode / no-pme / psnr / ssim / log-level=2 / csv / csv-log-level=2 / input-csp=1 / input-res=3840x2160 / interlace=0 / total-frames=0 / level-idc=50 / high-tier=1 / uhd-bd=0 / ref=5 / no-allow-non-conformance / no-repeat-headers / annexb / no-aud / no-hrd / info / hash=0 / no-temporal-layers / no-open-gop / min-keyint=64 / keyint=125 / gop-lookahead=0 / bframes=8 / b-adapt=2 / b-pyramid / bframe-bias=0 / rc-lookahead=125 / lookahead-slices=4 / scenecut=0 / radl=0 / no-intra-refresh / ctu=64 / min-cu-size=8 / rect / amp / max-tu-size=32 / tu-inter-depth=4 / tu-intra-depth=4 / limit-tu=4 / rdoq-level=2 / dynamic-rd=0.00 / no-ssim-rd / signhide / tskip / nr-intra=100 / nr-inter=600 / no-constrained-intra / strong-intra-smoothing / max-merge=3 / limit-refs=3 / limit-modes / me=3 / subme=3 / merange=57 / temporal-mvp / weightp / weightb / no-analyze-src-pics / deblock=0:0 / no-sao / no-sao-non-deblock / rd=4 / no-early-skip / no-rskip / no-fast-intra / tskip-fast / no-cu-lossless / b-intra / no-splitrd-skip / rdpenalty=0 / psy-rd=4.00 / psy-rdoq=10.00 / no-rd-refine / no-lossless / cbqpoffs=0 / crqpoffs=0 / rc=crf / crf=25.0 / qcomp=0.60 / qpstep=1 / stats-write=0 / stats-read=0 / vbv-maxrate=15000 / vbv-bufsize=20000 / vbv-init=0.9 / crf-max=0.0 / crf-min=0.0 / ipratio=1.10 / pbratio=1.00 / aq-mode=0 / aq-strength=1.50 / no-cutree / zone-count=0 / no-strict-cbr / qg-size=32 / rc-grain / qpmax=69 / qpmin=0 / const-vbv / sar=1 / overscan=0 / videoformat=2 / range=0 / colorprim=1 / transfer=1 / colormatrix=1 / chromaloc=0 / display-window=0 / max-cll=0,0 / min-luma=0 / max-luma=255 / log2-max-poc-lsb=8 / vui-timing-info / vui-hrd-info / slices=1 / opt-qp-pps / no-opt-ref-list-length-pps / no-multi-pass-opt-rps / scenecut-bias=0.05 / no-opt-cu-delta-qp / no-aq-motion / no-hdr / no-hdr-opt / no-dhdr10-opt / no-idr-recovery-sei / analysis-reuse-level=5 / scale-factor=0 / refine-intra=0 / refine-inter=0 / refine-mv=0 / no-limit-sao / ctu-info=0 / no-lowpass-dct / refine-mv-type=0 / copy-pic=1 / max-ausize-factor=1.0 / no-dynamic-refine / no-single-sei
  22. Default : Yes
  23. Forced : No
  24. Color range : Limited
  25. Color primaries : BT.709
  26. Transfer characteristics : BT.709
  27. Matrix coefficients : BT.709

  28. Audio
  29. ID : 2
  30. Format : E-AC-3
  31. Format/Info : Enhanced AC-3
  32. Commercial name : Dolby Digital Plus
  33. Codec ID : A_EAC3
  34. Duration : 53 min 30 s
  35. Bit rate mode : Constant
  36. Bit rate : 640 kb/s
  37. Channel(s) : 6 channels
  38. Channel layout : L R C LFE Ls Rs
  39. Sampling rate : 48.0 kHz
  40. Frame rate : 31.250 FPS (1536 SPF)
  41. Compression mode : Lossy
  42. Stream size : 245 MiB (4%)
  43. Title : English
  44. Language : English
  45. Service kind : Complete Main
  46. Default : No
  47. Forced : No

  48. Text #1
  49. ID : 3
  50. Format : UTF-8
  51. Codec ID : S_TEXT/UTF8
  52. Codec ID/Info : UTF-8 Plain Text
  53. Duration : 52 min 45 s
  54. Bit rate : 92 b/s
  55. Count of elements : 1001
  56. Stream size : 35.7 KiB (0%)
  57. Title : English [SDH]
  58. Language : English
  59. Default : No
  60. Forced : No

  61. Text #2
  62. ID : 4
  63. Format : UTF-8
  64. Codec ID : S_TEXT/UTF8
  65. Codec ID/Info : UTF-8 Plain Text
  66. Duration : 53 min 15 s
  67. Bit rate : 73 b/s
  68. Count of elements : 923
  69. Stream size : 28.6 KiB (0%)
  70. Title : Castilian
  71. Language : Spanish
  72. Default : No
  73. Forced : No

  74. Text #3
  75. ID : 5
  76. Format : UTF-8
  77. Codec ID : S_TEXT/UTF8
  78. Codec ID/Info : UTF-8 Plain Text
  79. Duration : 53 min 15 s
  80. Bit rate : 137 b/s
  81. Count of elements : 938
  82. Stream size : 53.5 KiB (0%)
  83. Title : Arabic
  84. Language : Arabic
  85. Default : No
  86. Forced : No

  87. Text #4
  88. ID : 6
  89. Format : UTF-8
  90. Codec ID : S_TEXT/UTF8
  91. Codec ID/Info : UTF-8 Plain Text
  92. Duration : 53 min 15 s
  93. Bit rate : 72 b/s
  94. Count of elements : 924
  95. Stream size : 28.2 KiB (0%)
  96. Title : Danish
  97. Language : Danish
  98. Default : No
  99. Forced : No
复制代码


I Bought the Farm/我买了一个农场4k Clarksons.Farm.S01.2160p.AMZN.WEBRip.DDP5.1.x265-4k英剧下载
我买了一个农场4k Clarksons.Farm.S01.2160p.AMZN.WEBRip.DDP5.1.x265【49.63GB】
[Hao4k]我买了一个农场4K Clarksons.Farm.S01.2160p.AMZN.WEBRip.DDP5.1.x265-CKOne.torrent (100.39 KB)
回复

使用道具 举报

全部回复7

wangzhi691126 发表于 6 天前

wangzhi691126 2

6 天前

感谢分享
回复 支持 反对

使用道具 举报

再见了宋哈娜 发表于 6 天前

再见了宋哈娜 3

6 天前

这不是三贱客吗?
回复 支持 反对

使用道具 举报

依依小茉茉 发表于 3 天前

依依小茉茉 4

3 天前

有另外两人客串吗?
回复 支持 反对

使用道具 举报

zxcvbnma 发表于 3 天前

zxcvbnma 5

3 天前

大猩猩!
回复 支持 反对

使用道具 举报

Zard 发表于 3 天前

Zard 6

3 天前

感谢分享
回复 支持 反对

使用道具 举报

358567082 发表于 前天 12:13

358567082 7

前天 12:13

三剑客开始各自发展番外了嘛
回复 支持 反对

使用道具 举报

宝矿力 发表于 7 小时前

宝矿力 8

7 小时前

感谢分享!!!
回复 支持 反对

使用道具 举报

   发表回复

您需要登录后才可以回帖 登录 | 立即注册

返回列表 本版积分规则

:
白银玩家
:
未填写

主题

帖子

积分1158

关闭

站内通知上一条 /1 下一条

  • 在线客服

  • 返回顶部