微博 微信

Hao4K影音

电影频道
电影封面:
片  名: 蝙蝠侠:漫长的万圣节4k
电影分类: 动作 科幻 犯罪 恐怖 悬疑 动画 
国  家: 美国 
年  代: 2021年
分 辨 率: 4K(3840x2160)
电影格式: MKV|REMUX 
画质标准: HDR 
音质编码: DTS-HD Master Audio 
电影声道: 5.1声道 
帧数/FPS: 23.976 帧
电影语言: 英文原版 
资源大小: 10.74 GB
导  演: 克里斯·帕尔默
豆瓣评分: 7.7 分
中文字幕: /thread-58770-1-1.html
剧情简介:  The long-rumored Batman: The Long Halloween animated movie is finally a reality. It will be released as a two-part movie with the first part arriving in Summer 2021 and part two will arrive in Fall 2021.
蝙蝠侠:漫长的万圣节4k Batman.the.Long.Halloween.Part.One.2021.2160p.WEB-DL.x265.10bit.HDR.DTS-HD.MA.5.1电影信息
  1. Video
  2. ID : 1
  3. Format : HEVC
  4. Format/Info : High Efficiency Video Coding
  5. Format profile : Main 10@L5@High
  6. HDR format : SMPTE ST 2086, HDR10 compatible
  7. Codec ID : V_MPEGH/ISO/HEVC
  8. Duration : 1 h 25 min
  9. Bit rate : 14.6 Mb/s
  10. Width : 3 840 pixels
  11. Height : 2 160 pixels
  12. Display aspect ratio : 16:9
  13. Frame rate mode : Constant
  14. Frame rate : 23.976 FPS
  15. Color space : YUV
  16. Chroma subsampling : 4:2:0 (Type 2)
  17. Bit depth : 10 bits
  18. Bits/(Pixel*Frame) : 0.074
  19. Stream size : 8.73 GiB (81%)
  20. Default : Yes
  21. Forced : No
  22. Color range : Limited
  23. Color primaries : BT.2020
  24. Transfer characteristics : PQ
  25. Matrix coefficients : BT.2020 non-constant
  26. Mastering display color primaries : BT.2020
  27. Mastering display luminance : min: 0.0050 cd/m2, max: 1000 cd/m2
  28. Maximum Content Light Level : 403 cd/m2
  29. Maximum Frame-Average Light Level : 370 cd/m2

  30. Audio #1
  31. ID : 2
  32. ID in the original source medium : 4352 (0x1100)
  33. Format : DTS XLL
  34. Format/Info : Digital Theater Systems
  35. Commercial name : DTS-HD Master Audio
  36. Codec ID : A_DTS
  37. Duration : 1 h 25 min
  38. Bit rate mode : Variable
  39. Bit rate : 2 975 kb/s
  40. Channel(s) : 6 channels
  41. Channel layout : C L R Ls Rs LFE
  42. Sampling rate : 48.0 kHz
  43. Frame rate : 93.750 FPS (512 SPF)
  44. Bit depth : 24 bits
  45. Compression mode : Lossless
  46. Stream size : 1.78 GiB (17%)
  47. Title : DTS-HD MA 5.1
  48. Language : English
  49. Default : Yes
  50. Forced : No
  51. Original source medium : Blu-ray

  52. Audio #2
  53. ID : 3
  54. Format : AC-3
  55. Format/Info : Audio Coding 3
  56. Commercial name : Dolby Digital
  57. Codec ID : A_AC3
  58. Duration : 1 h 25 min
  59. Bit rate mode : Constant
  60. Bit rate : 384 kb/s
  61. Channel(s) : 6 channels
  62. Channel layout : L R C LFE Ls Rs
  63. Sampling rate : 48.0 kHz
  64. Frame rate : 31.250 FPS (1536 SPF)
  65. Compression mode : Lossy
  66. Stream size : 235 MiB (2%)
  67. Title : DD 5.1
  68. Language : English
  69. Service kind : Complete Main
  70. Default : No
  71. Forced : No

  72. Text #1
  73. ID : 4
  74. Format : UTF-8
  75. Codec ID : S_TEXT/UTF8
  76. Codec ID/Info : UTF-8 Plain Text
  77. Duration : 1 h 24 min
  78. Bit rate : 44 b/s
  79. Count of elements : 935
  80. Stream size : 27.3 KiB (0%)
  81. Language : English
  82. Default : Yes
  83. Forced : No

  84. Text #2
  85. ID : 5
  86. Format : UTF-8
  87. Codec ID : S_TEXT/UTF8
  88. Codec ID/Info : UTF-8 Plain Text
  89. Duration : 1 h 24 min
  90. Bit rate : 50 b/s
  91. Count of elements : 936
  92. Stream size : 31.3 KiB (0%)
  93. Title : French
  94. Language : French
  95. Default : No
  96. Forced : No

  97. Menu
  98. 00:00:00.000 : Scene 1
  99. 00:05:24.908 : Scene 2
  100. 00:10:46.312 : Scene 3
  101. 00:17:11.072 : Scene 4
  102. 00:23:43.673 : Scene 5
  103. 00:32:04.758 : Scene 6
  104. 00:37:05.975 : Scene 7
  105. 00:42:25.587 : Scene 8
  106. 00:49:20.418 : Scene 9
  107. 00:52:53.506 : Scene 10
  108. 00:58:41.396 : Scene 11
  109. 01:04:30.412 : Scene 12
  110. 01:08:22.143 : Scene 13
  111. 01:14:28.843 : Scene 14
  112. 01:19:36.943 : Scene 15
  113. 01:24:00.749 : Scene 16
复制代码


蝙蝠侠:漫长的万圣节4k Batman.the.Long.Halloween.Part.One.2021.2160p.WEB-DL.x265.10bit.HDR.DTS-HD.MA.5.1电影下载
蝙蝠侠:漫长的万圣节4k Batman.the.Long.Halloween.Part.One.2021.2160p.WEB-DL.x265.10bit.HDR.DTS-HD.MA.5.1【10.74GB】
[Hao4k]蝙蝠侠:漫长的万圣节4k Batman.the.Long.Halloween.Part.One.2021.2160p.WEB-.torrent (54.4 KB, 售价: 2 个K币)
回复

使用道具 举报

   发表回复

您需要登录后才可以回帖 登录 | 立即注册

返回列表 本版积分规则

  • 在线客服

  • 返回顶部