微博 微信

Hao4K影音

电影频道
电影封面:
片  名: 野性精神4k
电影分类: 冒险 动画 西部 
国  家: 美国 
年  代: 2021年
分 辨 率: 4K(3840x2160)
电影格式: MKV|REMUX 
画质标准: HDR10 
音质编码: Dolby Digital Plus Audio 
电影声道: 5.1声道 
帧数/FPS: 23.976 帧
电影语言: 英文原版 
资源大小: 9.54 GB
导  演: 伊莲·博根 / 恩尼奥·托雷桑
豆瓣评分:
中文字幕: -
剧情简介: 幸运的普雷斯科特的生活永远改变了,当她从她在城市的家搬到一个边疆小镇,并与一只名叫“精灵”的野马交上了朋友。
小马王:毛驹无束(港) / 奔驰吧!小马王(台) / 史比瑞:奔向自由 / 不羁的精神 /Spirit Riding Free/野性精神4kSpirit.Untamed.2021.2160p.AMZN.WEB-DL.x265.10bit.HDR10Plus.DDP5.1电影信息
  1. Video
  2. ID : 1
  3. Format : HEVC
  4. Format/Info : High Efficiency Video Coding
  5. Format profile : Main 10@L5@Main
  6. HDR format : SMPTE ST 2094 App 4, Version 1, HDR10+ Profile B compatible
  7. Codec ID : V_MPEGH/ISO/HEVC
  8. Duration : 1 h 27 min
  9. Bit rate : 14.9 Mb/s
  10. Width : 3 840 pixels
  11. Height : 1 600 pixels
  12. Display aspect ratio : 2.40:1
  13. Frame rate mode : Constant
  14. Frame rate : 23.976 (24000/1001) FPS
  15. Color space : YUV
  16. Chroma subsampling : 4:2:0
  17. Bit depth : 10 bits
  18. Bits/(Pixel*Frame) : 0.101
  19. Stream size : 9.15 GiB (96%)
  20. Default : Yes
  21. Forced : No
  22. Color range : Limited
  23. Color primaries : BT.2020
  24. Transfer characteristics : PQ
  25. Matrix coefficients : BT.2020 non-constant
  26. Mastering display color primaries : BT.2020
  27. Mastering display luminance : min: 0.0050 cd/m2, max: 1000 cd/m2
  28. Maximum Content Light Level : 1033 cd/m2
  29. Maximum Frame-Average Light Level : 246 cd/m2

  30. Audio
  31. ID : 2
  32. Format : E-AC-3
  33. Format/Info : Enhanced AC-3
  34. Commercial name : Dolby Digital Plus
  35. Codec ID : A_EAC3
  36. Duration : 1 h 27 min
  37. Bit rate mode : Constant
  38. Bit rate : 640 kb/s
  39. Channel(s) : 6 channels
  40. Channel layout : L R C LFE Ls Rs
  41. Sampling rate : 48.0 kHz
  42. Frame rate : 31.250 FPS (1536 SPF)
  43. Compression mode : Lossy
  44. Stream size : 401 MiB (4%)
  45. Title : English
  46. Language : English
  47. Service kind : Complete Main
  48. Default : No
  49. Forced : No

  50. Text #1
  51. ID : 3
  52. Format : UTF-8
  53. Codec ID : S_TEXT/UTF8
  54. Codec ID/Info : UTF-8 Plain Text
  55. Duration : 1 h 27 min
  56. Bit rate : 80 b/s
  57. Count of elements : 2041
  58. Stream size : 51.5 KiB (0%)
  59. Title : English [SDH]
  60. Language : English
  61. Default : No
  62. Forced : No

  63. Text #2
  64. ID : 4
  65. Format : UTF-8
  66. Codec ID : S_TEXT/UTF8
  67. Codec ID/Info : UTF-8 Plain Text
  68. Duration : 1 h 26 min
  69. Bit rate : 64 b/s
  70. Count of elements : 1673
  71. Stream size : 41.0 KiB (0%)
  72. Title : English
  73. Language : English
  74. Default : No
  75. Forced : No
复制代码


小马王:毛驹无束(港) / 奔驰吧!小马王(台) / 史比瑞:奔向自由 / 不羁的精神 / Spirit Riding Free/野性精神4kSpirit.Untamed.2021.2160p.AMZN.WEB-DL.x265.10bit.HDR10Plus.DDP5.1电影下载
野性精神4k Spirit.Untamed.2021.2160p.AMZN.WEB-DL.x265.10bit.HDR10Plus.DDP5.1【9.54GB】
[Hao4k]野性精神4K Spirit.Untamed.2021.2160p.AMZN.WEB-DL.x265.10bit.HDR10Plus.DDP.torrent (48.39 KB)
回复

使用道具 举报

全部回复25

witt02 发表于 2021-6-24 18:17:48

witt02 2

2021-6-24 18:17:48

这年头马都眉清目秀了,长得不如马
回复 支持 反对

使用道具 举报

ws1 发表于 2021-6-24 18:27:07

ws1 3

2021-6-24 18:27:07

下给小孩子看不错~~
回复 支持 反对

使用道具 举报

ming5525 发表于 2021-6-24 19:28:04

ming5525 4

2021-6-24 19:28:04

谢谢分享,大人也可以看看
回复 支持 反对

使用道具 举报

GXD639 发表于 2021-6-24 19:59:43

GXD639 5

2021-6-24 19:59:43

动画片下给小孩看!
回复 支持 反对

使用道具 举报

gyt 发表于 2021-6-24 22:19:30

gyt 6

2021-6-24 22:19:30

最近这么都是动画片啊
回复 支持 反对

使用道具 举报

leon7799 发表于 2021-6-24 22:58:41

leon7799 7

2021-6-24 22:58:41

字幕还没出来。以前老的那部小马王很好看
回复 支持 反对

使用道具 举报

stone3 发表于 2021-6-24 23:05:06

stone3 8

2021-6-24 23:05:06

这没有字幕啊
回复 支持 反对

使用道具 举报

kltan9988 发表于 2021-6-25 00:03:08

kltan9988 9

2021-6-25 00:03:08

谢谢分享,
回复 支持 反对

使用道具 举报

xichie 发表于 2021-6-25 08:22:45

xichie 10

2021-6-25 08:22:45

没有字幕啊,太可惜了。不然暑假可以给孩子们看看
回复 支持 反对

使用道具 举报

月光麦田 发表于 2021-6-25 08:42:12

月光麦田 11

2021-6-25 08:42:12

谢谢分享
回复 支持 反对

使用道具 举报

liubaijun 发表于 2021-6-25 09:23:01

liubaijun 12

2021-6-25 09:23:01

谢谢分享下来看看
回复 支持 反对

使用道具 举报

panbell 发表于 2021-6-25 09:56:30

panbell 13

2021-6-25 09:56:30

感谢分享!很给力!
回复 支持 反对

使用道具 举报

cdyangjun2019 发表于 2021-6-25 10:46:35

cdyangjun2019 14

2021-6-25 10:46:35

不错的电影,谢谢楼主分享
回复 支持 反对

使用道具 举报

nc8000 发表于 2021-6-25 12:59:37

nc8000 15

2021-6-25 12:59:37

不错的电影,谢谢楼主分享
回复 支持 反对

使用道具 举报

zsad 发表于 2021-6-25 20:20:26

zsad 16

2021-6-25 20:20:26


谢谢分享
回复 支持 反对

使用道具 举报

zsad 发表于 2021-6-25 20:30:14

zsad 17

2021-6-25 20:30:14


谢谢分享
回复 支持 反对

使用道具 举报

wusongk 发表于 2021-6-26 08:41:48

wusongk 18

2021-6-26 08:41:48

谢谢楼主分享。
回复 支持 反对

使用道具 举报

   发表回复

您需要登录后才可以回帖 登录 | 立即注册

返回列表 本版积分规则

  • 在线客服

  • 返回顶部