微博 微信

Hao4K影音

电视剧频道
电视剧封面:
电视剧名: 良医4k
年  代: 2017  
国  家: 美国
类  别: 剧情 
语  言: 英语
字  幕: 英文原版
上映日期: 2017-09-25
文件格式: mkv    
视频效果: 4K(3840x2160)    
资源大小: 41.47 GB
片  长: 41 分钟
导  演: 赛斯·戈登 / 麦克·里斯托
剧情简介: 《豪斯医生 House》主创David Shore联同Daniel Dae Kim开发ABC医务剧《好医生 The Good Doctor》,根据韩剧所改篇的《好医生》由David Shore编剧,讲述一个年轻﹑有学者症候群(在某种艺术或学术上有超乎常人的能力, 有10%自闭症患者有这种症候群)的外科医生Shaun Murphy加入了一间著名医院San Jose St. Bonaventure,这令所有人都起了这疑问:一个没法和常人建立关系的医生,真的能治疗患者?
  在《贝兹旅馆 Bates Motel》饰演著名精神病杀人魔Norman Bates的Freddie Highmore加盟饰演患有自闭症的主角Shaun Murphy,他虽然不擅长社交,不过有着具魅力的诚实及率直;学者症候群患者的他挨过了麻烦的童年,并成为了一个天才医生。Nicholas Gonzalez饰演Neil Melendez医生,是外科住院医生的上司。Antonia Thomas饰演Claire Browne,她是个意志坚强﹑有爱心﹑聪明的医生,当她在面对自己的挑战时,与Shaun形成了一种特殊的联系。Chuku Modu饰演Jared Unger医生,是医院的驻院医生。
  《犯罪现场调查:纽约 CSI: NY》主演Hill Harper将饰演Horace Andrews医生,医院外科主管,Irene Keng饰演Elle McLean医生,是位驻院医生。Richard Schiff饰演Ira Glassman医生,San Jose St. Bonaventure医院的院长,他本质是好人,但并非是个老好人。他在Shaun 16岁时就开始指导他,他对Shaun就像儿子一样,所以当他提出招揽Shaun时,比起在公,其实更因为是在私的关系。Beau Garrett饰演Jessica Preston,医院董事之一,是Ira Glassman的朋友,在招募Shaun来一事Jessica站在Ira的一边。
好医生 / 仁医 / 良医心 / 良医墨非/良医4k The.Good.Doctor.S01.2160p.AMZN.WEBRip.DDP5.1.x265美剧信息
  1. Video
  2. ID : 1
  3. Format : HEVC
  4. Format/Info : High Efficiency Video Coding
  5. Format profile : Main@L5@Main
  6. Codec ID : V_MPEGH/ISO/HEVC
  7. Duration : 42 min 56 s
  8. Bit rate : 12.4 Mb/s
  9. Width : 3 840 pixels
  10. Height : 2 160 pixels
  11. Display aspect ratio : 16:9
  12. Frame rate mode : Constant
  13. Frame rate : 23.976 (24000/1001) FPS
  14. Standard : NTSC
  15. Color space : YUV
  16. Chroma subsampling : 4:2:0
  17. Bit depth : 8 bits
  18. Bits/(Pixel*Frame) : 0.062
  19. Stream size : 3.71 GiB (95%)
  20. Writing library : x265 0.0:[Linux][GCC 4.8.2][64 bit] 8bit+10bit+12bit
  21. Encoding settings : cpuid=1173503 / frame-threads=2 / wpp / no-pmode / no-pme / psnr / ssim / log-level=2 / csvfn=/apollo/env/YoshiEncodingWorkflowActivitiesLinuxEncoding/var/tmp/1467341200/3acb1c23-47b2-46e2-94f5-802d06fc3ae4/71ad9d0e-69f3-4994-92d7-61308c07f0bc_video_2160p_15000kbps.csv / csv-log-level=2 / input-csp=1 / input-res=3840x2160 / interlace=0 / total-frames=0 / level-idc=50 / high-tier=1 / uhd-bd=0 / ref=5 / no-allow-non-conformance / no-repeat-headers / annexb / no-aud / no-hrd / info / hash=0 / no-temporal-layers / no-open-gop / min-keyint=61 / keyint=120 / bframes=8 / b-adapt=2 / b-pyramid / bframe-bias=0 / rc-lookahead=120 / lookahead-slices=4 / scenecut=0 / no-intra-refresh / ctu=64 / min-cu-size=8 / rect / amp / max-tu-size=32 / tu-inter-depth=4 / tu-intra-depth=4 / limit-tu=4 / rdoq-level=2 / dynamic-rd=0.00 / no-ssim-rd / signhide / tskip / nr-intra=100 / nr-inter=600 / no-constrained-intra / strong-intra-smoothing / max-merge=3 / limit-refs=3 / limit-modes / me=3 / subme=3 / merange=57 / temporal-mvp / weightp / weightb / no-analyze-src-pics / deblock=0:0 / no-sao / no-sao-non-deblock / rd=4 / no-early-skip / no-rskip / no-fast-intra / tskip-fast / no-cu-lossless / b-intra / rdpenalty=0 / psy-rd=4.00 / psy-rdoq=10.00 / no-rd-refine / analysis-reuse-mode=0 / no-lossless / cbqpoffs=0 / crqpoffs=0 / rc=crf / crf=25.0 / qcomp=0.60 / qpstep=1 / stats-write=0 / stats-read=0 / vbv-maxrate=15000 / vbv-bufsize=20000 / vbv-init=0.9 / crf-max=0.0 / crf-min=0.0 / ipratio=1.10 / pbratio=1.00 / aq-mode=0 / aq-strength=1.50 / no-cutree / zone-count=0 / no-strict-cbr / qg-size=32 / rc-grain / qpmax=69 / qpmin=0 / const-vbv / sar=1 / overscan=0 / videoformat=2 / range=0 / colorprim=1 / transfer=1 / colormatrix=1 / chromaloc=0 / display-window=0 / max-cll=0,0 / min-luma=0 / max-luma=255 / log2-max-poc-lsb=8 / vui-timing-info / vui-hrd-info / slices=1 / opt-qp-pps / opt-ref-list-length-pps / no-multi-pass-opt-rps / scenecut-bias=0.05 / no-opt-cu-delta-qp / no-aq-motion / no-hdr / no-hdr-opt / no-dhdr10-opt / analysis-reuse-level=5 / scale-factor=0 / refine-intra=0 / refine-inter=0 / refine-mv=0 / no-limit-sao / ctu-info=0
  22. Default : Yes
  23. Forced : No
  24. Color range : Limited
  25. Color primaries : BT.709
  26. Transfer characteristics : BT.709
  27. Matrix coefficients : BT.709

  28. Audio
  29. ID : 2
  30. Format : E-AC-3
  31. Format/Info : Enhanced AC-3
  32. Commercial name : Dolby Digital Plus
  33. Codec ID : A_EAC3
  34. Duration : 42 min 56 s
  35. Bit rate mode : Constant
  36. Bit rate : 640 kb/s
  37. Channel(s) : 6 channels
  38. Channel layout : L R C LFE Ls Rs
  39. Sampling rate : 48.0 kHz
  40. Frame rate : 31.250 FPS (1536 SPF)
  41. Compression mode : Lossy
  42. Stream size : 197 MiB (5%)
  43. Title : English
  44. Language : English
  45. Service kind : Complete Main
  46. Default : No
  47. Forced : No

  48. Text #1
  49. ID : 3
  50. Format : UTF-8
  51. Codec ID : S_TEXT/UTF8
  52. Codec ID/Info : UTF-8 Plain Text
  53. Duration : 42 min 45 s
  54. Bit rate : 77 b/s
  55. Count of elements : 636
  56. Stream size : 24.1 KiB (0%)
  57. Title : Danish
  58. Language : Danish
  59. Default : No
  60. Forced : No

  61. Text #2
  62. ID : 4
  63. Format : UTF-8
  64. Codec ID : S_TEXT/UTF8
  65. Codec ID/Info : UTF-8 Plain Text
  66. Duration : 42 min 43 s
  67. Bit rate : 85 b/s
  68. Count of elements : 1020
  69. Stream size : 26.6 KiB (0%)
  70. Title : English sdh
  71. Language : English
  72. Default : No
  73. Forced : No

  74. Text #3
  75. ID : 5
  76. Format : UTF-8
  77. Codec ID : S_TEXT/UTF8
  78. Codec ID/Info : UTF-8 Plain Text
  79. Duration : 42 min 16 s
  80. Bit rate : 83 b/s
  81. Count of elements : 709
  82. Stream size : 25.8 KiB (0%)
  83. Title : Castilian sdh
  84. Language : Spanish
  85. Default : No
  86. Forced : No

  87. Text #4
  88. ID : 6
  89. Format : UTF-8
  90. Codec ID : S_TEXT/UTF8
  91. Codec ID/Info : UTF-8 Plain Text
  92. Duration : 42 min 16 s
  93. Bit rate : 88 b/s
  94. Count of elements : 709
  95. Stream size : 27.5 KiB (0%)
  96. Title : Spanish sdh
  97. Language : Spanish
  98. Default : No
  99. Forced : No

  100. Text #5
  101. ID : 7
  102. Format : UTF-8
  103. Codec ID : S_TEXT/UTF8
  104. Codec ID/Info : UTF-8 Plain Text
  105. Duration : 42 min 50 s
  106. Bit rate : 59 b/s
  107. Count of elements : 672
  108. Stream size : 18.7 KiB (0%)
  109. Title : French
  110. Language : French
  111. Default : No
  112. Forced : No

  113. Text #6
  114. ID : 8
  115. Format : UTF-8
  116. Codec ID : S_TEXT/UTF8
  117. Codec ID/Info : UTF-8 Plain Text
  118. Duration : 42 min 46 s
  119. Bit rate : 78 b/s
  120. Count of elements : 635
  121. Stream size : 24.6 KiB (0%)
  122. Title : Indonesian
  123. Language : Indonesian
  124. Default : No
  125. Forced : No

  126. Text #7
  127. ID : 9
  128. Format : UTF-8
  129. Codec ID : S_TEXT/UTF8
  130. Codec ID/Info : UTF-8 Plain Text
  131. Duration : 42 min 45 s
  132. Bit rate : 72 b/s
  133. Count of elements : 636
  134. Stream size : 22.7 KiB (0%)
  135. Title : Italian
  136. Language : Italian
  137. Default : No
  138. Forced : No

  139. Text #8
  140. ID : 10
  141. Format : UTF-8
  142. Codec ID : S_TEXT/UTF8
  143. Codec ID/Info : UTF-8 Plain Text
  144. Duration : 42 min 45 s
  145. Bit rate : 74 b/s
  146. Count of elements : 626
  147. Stream size : 23.5 KiB (0%)
  148. Title : Dutch
  149. Language : Dutch
  150. Default : No
  151. Forced : No

  152. Text #9
  153. ID : 11
  154. Format : UTF-8
  155. Codec ID : S_TEXT/UTF8
  156. Codec ID/Info : UTF-8 Plain Text
  157. Duration : 42 min 45 s
  158. Bit rate : 72 b/s
  159. Count of elements : 635
  160. Stream size : 22.6 KiB (0%)
  161. Title : Norwegian
  162. Language : Norwegian Bokmal
  163. Default : No
  164. Forced : No
复制代码


好医生 / 仁医 / 良医心 / 良医墨非/良医4k The.Good.Doctor.S01.2160p.AMZN.WEBRip.DDP5.1.x265美剧下载

良医4k The.Good.Doctor.S01.2160p.AMZN.WEBRip.DDP5.1.x265【41.47GB】
[Hao4k]良医4k The.Good.Doctor.S01.2160p.AMZN.WEBRip.DDP5.1.x265-SymBiOTes.torrent (106.17 KB)
回复

使用道具 举报

全部回复3

wellapolo 发表于 2021-7-3 07:57:23

wellapolo 2

2021-7-3 07:57:23

找了好久,能不能持续出啊,还有好几季呢
回复 支持 反对

使用道具 举报

AcielAn 发表于 2021-7-6 17:14:10

AcielAn 3

2021-7-6 17:14:10

谢谢分享
回复 支持 反对

使用道具 举报

HWyt 发表于 2021-7-15 09:25:49

HWyt 4

2021-7-15 09:25:49

谢谢分享。这个好。
收藏了4k
回复 支持 反对

使用道具 举报

   发表回复

您需要登录后才可以回帖 登录 | 立即注册

返回列表 本版积分规则

  • 在线客服

  • 返回顶部