微博 微信

Hao4K影音

电影频道
电影封面:
片  名: 证人4k
电影分类: 惊悚 剧情 爱情片 
国  家: 美国 
年  代: 80年代
分 辨 率: 4K(3840x2160)
电影格式: MKV|REMUX 
画质标准: HDR 
音质编码: DTS-HD Master Audio 
电影声道: 5.1声道 
帧数/FPS: 23.976 帧
电影语言: 中文简体 中文繁体 英文原版 
资源大小: 25.42 GB
导  演: 彼得·威尔
豆瓣评分: 7.2 分
中文字幕: /thread-58774-1-1.html
剧情简介: 因为目睹了一场谋杀案,瑞秋(凯莉·麦吉利斯 Kelly McGillis 饰)和儿子山姆(卢卡斯·哈斯 Lukas Haas 饰)的平静生活被彻底打破。接到报案的约翰警长(哈里森·福特 Harrison Ford 饰)匆匆赶来,没想到被指认的凶手不是别人,正是同为警探的迈克菲(丹尼·格洛弗 Danny Glover 饰)。约翰将这一消息报告给了上司保罗(约瑟夫·索默 Josef Sommer 饰),没想到保罗和迈克菲之间有着邪恶而非法的关联。
  得知真相的约翰遭到了迈克菲的诛杀,身受重伤的他被瑞秋带到了阿门部落疗养。在疗养的日子里,约翰和瑞秋之间产生了奇妙的化学反应,同时,约翰也逐渐习惯了在阿门部落里的生活。好景不长,保罗最终发现了约翰的行踪,为了守住自己肮脏的秘密,他誓要将约翰置于死地。
目击者 / 灭口大追杀/证人4k Witness.1985.2160p.WEB-DL.x265.10bit.HDR.DTS-HD.MA.TrueHD.5.1-4k电影信息
  1. Video
  2. ID : 1
  3. Format : HEVC
  4. Format/Info : High Efficiency Video Coding
  5. Format profile : Main 10@L5@High
  6. HDR format : SMPTE ST 2086, HDR10 compatible
  7. Codec ID : V_MPEGH/ISO/HEVC
  8. Duration : 1 h 52 min
  9. Bit rate : 24.7 Mb/s
  10. Width : 3 840 pixels
  11. Height : 2 076 pixels
  12. Display aspect ratio : 1.85:1
  13. Frame rate mode : Constant
  14. Frame rate : 23.976 FPS
  15. Color space : YUV
  16. Chroma subsampling : 4:2:0 (Type 2)
  17. Bit depth : 10 bits
  18. Bits/(Pixel*Frame) : 0.129
  19. Stream size : 19.4 GiB (77%)
  20. Default : Yes
  21. Forced : No
  22. Color range : Limited
  23. Color primaries : BT.2020
  24. Transfer characteristics : PQ
  25. Matrix coefficients : BT.2020 non-constant
  26. Mastering display color primaries : Display P3
  27. Mastering display luminance : min: 0.0050 cd/m2, max: 1000 cd/m2
  28. Maximum Content Light Level : 3934 cd/m2
  29. Maximum Frame-Average Light Level : 574 cd/m2

  30. Audio #1
  31. ID : 2
  32. ID in the original source medium : 4352 (0x1100)
  33. Format : MLP FBA
  34. Format/Info : Meridian Lossless Packing FBA
  35. Commercial name : Dolby TrueHD
  36. Codec ID : A_TRUEHD
  37. Duration : 1 h 52 min
  38. Bit rate mode : Variable
  39. Bit rate : 2 832 kb/s
  40. Maximum bit rate : 4 608 kb/s
  41. Channel(s) : 6 channels
  42. Channel layout : L R C LFE Ls Rs
  43. Sampling rate : 48.0 kHz
  44. Frame rate : 1 200.000 FPS (40 SPF)
  45. Bit depth : 24 bits
  46. Compression mode : Lossless
  47. Stream size : 2.22 GiB (9%)
  48. Title : TrueHD 5.1
  49. Language : English
  50. Default : Yes
  51. Forced : No
  52. Original source medium : Blu-ray

  53. Audio #2
  54. ID : 3
  55. Format : DTS XLL
  56. Format/Info : Digital Theater Systems
  57. Commercial name : DTS-HD Master Audio
  58. Codec ID : A_DTS
  59. Duration : 1 h 52 min
  60. Bit rate mode : Variable
  61. Bit rate : 3 504 kb/s
  62. Channel(s) : 6 channels
  63. Channel layout : C L R Ls Rs LFE
  64. Sampling rate : 48.0 kHz
  65. Frame rate : 93.750 FPS (512 SPF)
  66. Bit depth : 24 bits
  67. Compression mode : Lossless
  68. Stream size : 2.75 GiB (11%)
  69. Title : DTS-HD MA 5.1
  70. Language : English
  71. Default : No
  72. Forced : No

  73. Audio #3
  74. ID : 4
  75. ID in the original source medium : 4352 (0x1100)
  76. Format : AC-3
  77. Format/Info : Audio Coding 3
  78. Commercial name : Dolby Digital
  79. Codec ID : A_AC3
  80. Duration : 1 h 52 min
  81. Bit rate mode : Constant
  82. Bit rate : 640 kb/s
  83. Channel(s) : 6 channels
  84. Channel layout : L R C LFE Ls Rs
  85. Sampling rate : 48.0 kHz
  86. Frame rate : 31.250 FPS (1536 SPF)
  87. Compression mode : Lossy
  88. Stream size : 515 MiB (2%)
  89. Title : DD 5.1
  90. Language : English
  91. Service kind : Complete Main
  92. Default : No
  93. Forced : No
  94. Original source medium : Blu-ray

  95. Audio #4
  96. ID : 5
  97. Format : AC-3
  98. Format/Info : Audio Coding 3
  99. Commercial name : Dolby Digital
  100. Codec ID : A_AC3
  101. Duration : 1 h 52 min
  102. Bit rate mode : Constant
  103. Bit rate : 384 kb/s
  104. Channel(s) : 6 channels
  105. Channel layout : L R C LFE Ls Rs
  106. Sampling rate : 48.0 kHz
  107. Frame rate : 31.250 FPS (1536 SPF)
  108. Compression mode : Lossy
  109. Stream size : 309 MiB (1%)
  110. Title : DD 5.1
  111. Language : English
  112. Service kind : Complete Main
  113. Default : No
  114. Forced : No

  115. Text #1
  116. ID : 6
  117. Format : UTF-8
  118. Codec ID : S_TEXT/UTF8
  119. Codec ID/Info : UTF-8 Plain Text
  120. Duration : 1 h 43 min
  121. Bit rate : 31 b/s
  122. Count of elements : 739
  123. Stream size : 23.9 KiB (0%)
  124. Language : English
  125. Default : Yes
  126. Forced : No

  127. Text #2
  128. ID : 7
  129. ID in the original source medium : 4608 (0x1200)
  130. Format : PGS
  131. Muxing mode : zlib
  132. Codec ID : S_HDMV/PGS
  133. Codec ID/Info : Picture based subtitle format used on BDs/HD-DVDs
  134. Duration : 1 h 49 min
  135. Bit rate : 14.2 kb/s
  136. Count of elements : 1504
  137. Stream size : 11.1 MiB (0%)
  138. Language : Chinese
  139. Default : No
  140. Forced : No
  141. Original source medium : Blu-ray
复制代码


目击者 / 灭口大追杀/证人4k Witness.1985.2160p.WEB-DL.x265.10bit.HDR.DTS-HD.MA.TrueHD.5.1-4k电影下载

证人4k Witness.1985.2160p.WEB-DL.x265.10bit.HDR.DTS-HD.MA.TrueHD.5.1【25.42GB】
[Hao4k]证人4k Witness.1985.2160p.WEB-DL.x265.10bit.HDR.DTS-HD.MA.TrueHD.5.1-SWTY.torrent (63.98 KB, 售价: 2 个K币)
回复

使用道具 举报

全部回复25

schneider1016 发表于 2021-6-24 19:55:49

schneider1016 2

2021-6-24 19:55:49

喜欢这种老电影 感谢分享
回复 支持 1 反对 0

使用道具 举报

农夫舅舅 发表于 2021-6-24 20:29:31

农夫舅舅 3

2021-6-24 20:29:31

哈里森·福特主演的一定要看看的
回复 支持 反对

使用道具 举报

dqxa 发表于 2021-6-24 20:30:48

dqxa 4

2021-6-24 20:30:48

喜欢“哈里森。福特”的电影。
回复 支持 反对

使用道具 举报

yuin01 发表于 2021-6-24 20:53:18

yuin01 5

2021-6-24 20:53:18

感谢分享 ,下来看看!
回复 支持 反对

使用道具 举报

xxw8888 发表于 2021-6-24 21:24:54 Hao4K手机版

xxw8888 6

2021-6-24 21:24:54

感谢分享。
回复 支持 反对

使用道具 举报

shengfan007 发表于 2021-6-24 21:44:35

shengfan007 7

2021-6-24 21:44:35

收藏过1080P的版本,现在该洗版了
回复 支持 反对

使用道具 举报

shengfan007 发表于 2021-6-24 21:45:37

shengfan007 8

2021-6-24 21:45:37

自从有了4K资源,就不停地在洗版
回复 支持 1 反对 0

使用道具 举报

light222209 发表于 2021-6-24 23:12:40

light222209 9

2021-6-24 23:12:40

感谢分享!很给力!
回复 支持 反对

使用道具 举报

cdyangjun2019 发表于 2021-6-25 08:28:18

cdyangjun2019 10

2021-6-25 08:28:18

80年代的老片,谢谢楼主分享
回复 支持 反对

使用道具 举报

世爵39 发表于 2021-6-25 08:41:01

世爵39 11

2021-6-25 08:41:01

又一部经典影片,值得收藏
回复 支持 1 反对 0

使用道具 举报

世爵39 发表于 2021-6-25 08:46:19

世爵39 12

2021-6-25 08:46:19

男主角夏里逊福以前太多经典影片
回复 支持 反对

使用道具 举报

iris6267 发表于 2021-6-25 09:10:16

iris6267 13

2021-6-25 09:10:16

感谢分享
回复 支持 反对

使用道具 举报

liubaijun 发表于 2021-6-25 09:22:40

liubaijun 14

2021-6-25 09:22:40

谢谢分享下来看看
回复 支持 反对

使用道具 举报

bbgrnnji 发表于 2021-6-25 09:36:44

bbgrnnji 15

2021-6-25 09:36:44

虽然是老片,但很不错
回复 支持 反对

使用道具 举报

panbell 发表于 2021-6-25 09:53:28

panbell 16

2021-6-25 09:53:28

感谢分享!很给力!
回复 支持 反对

使用道具 举报

yangly 发表于 2021-6-25 11:03:06 Hao4K手机版

yangly 17

2021-6-25 11:03:06

谢谢分享
回复 支持 反对

使用道具 举报

lhgctt 发表于 2021-6-25 11:46:15

lhgctt 18

2021-6-25 11:46:15

好电影,谢谢分享
回复 支持 反对

使用道具 举报

   发表回复

您需要登录后才可以回帖 登录 | 立即注册

返回列表 本版积分规则

  • 在线客服

  • 返回顶部