微博 微信

Hao4K影音

电影频道
电影封面:
片  名: 假阳性4k
电影分类: 恐怖 
国  家: 美国 
年  代: 2021年
分 辨 率: 4K(3840x2160)
电影格式: MKV|REMUX 
画质标准: 其他 
音质编码: Dolby Digital Plus Audio 其他AAC 
电影声道: 其他 
帧数/FPS: 24.000 帧
电影语言: 英文原版 
资源大小: 9.23 GB
导  演: 李·约翰
豆瓣评分:
中文字幕: -
剧情简介: 伊拉纳·格雷泽(《大城小妞》)、贾斯汀·塞洛克斯、皮尔斯·布鲁斯南将主演A24恐怖新片[假阳性](False Positive,暂译)。约翰·李(John Lee)执导,约翰与伊拉纳操刀剧本。卡司还包括约什·汉密尔顿([八年级])、格瑞辰·摩尔、索菲亚·布什(《芝加哥警署》)。
假阳性4k False.Positive.2021.2160p.WEB.H265电影信息
  1. Video
  2. ID : 1
  3. Format : HEVC
  4. Format/Info : High Efficiency Video Coding
  5. Format profile : Main 10@L5.1@Main
  6. Codec ID : V_MPEGH/ISO/HEVC
  7. Duration : 1 h 32 min
  8. Bit rate : 14.0 Mb/s
  9. Width : 3 840 pixels
  10. Height : 2 160 pixels
  11. Display aspect ratio : 16:9
  12. Frame rate mode : Constant
  13. Frame rate : 24.000 FPS
  14. Color space : YUV
  15. Chroma subsampling : 4:2:0
  16. Bit depth : 10 bits
  17. Bits/(Pixel*Frame) : 0.070
  18. Stream size : 9.07 GiB (98%)
  19. Default : Yes
  20. Forced : No

  21. Audio
  22. ID : 2
  23. Format : E-AC-3
  24. Format/Info : Enhanced AC-3
  25. Commercial name : Dolby Digital Plus
  26. Codec ID : A_EAC3
  27. Duration : 1 h 32 min
  28. Bit rate mode : Constant
  29. Bit rate : 256 kb/s
  30. Channel(s) : 6 channels
  31. Channel layout : L R C LFE Ls Rs
  32. Sampling rate : 48.0 kHz
  33. Frame rate : 31.250 FPS (1536 SPF)
  34. Compression mode : Lossy
  35. Stream size : 169 MiB (2%)
  36. Title : English
  37. Language : English
  38. Service kind : Complete Main
  39. Default : No
  40. Forced : No

  41. Text #1
  42. ID : 3
  43. Format : UTF-8
  44. Codec ID : S_TEXT/UTF8
  45. Codec ID/Info : UTF-8 Plain Text
  46. Duration : 1 h 23 min
  47. Bit rate : 50 b/s
  48. Count of elements : 1079
  49. Stream size : 31.1 KiB (0%)
  50. Title : Spanish
  51. Language : Spanish
  52. Default : No
  53. Forced : No

  54. Text #2
  55. ID : 4
  56. Format : UTF-8
  57. Codec ID : S_TEXT/UTF8
  58. Codec ID/Info : UTF-8 Plain Text
  59. Duration : 1 h 23 min
  60. Bit rate : 50 b/s
  61. Count of elements : 1085
  62. Stream size : 30.7 KiB (0%)
  63. Title : English
  64. Language : English
  65. Default : No
  66. Forced : No
复制代码

假阳性4k False.Positive.2021.2160p.WEB.H265电影下载
假阳性4k False.Positive.2021.2160p.WEB.H265【9.23GB】
[Hao4k]假阳性4k False.Positive.2021.2160p.WEB.H265-TIMECUT.torrent (46.84 KB, 售价: 2 个K币)
回复

使用道具 举报

全部回复11

concord3303 发表于 2021-6-25 18:49:45

concord3303 2

2021-6-25 18:49:45

感谢分享 ,下来看看!
回复 支持 反对

使用道具 举报

hhhz 发表于 2021-6-25 18:51:36

hhhz 3

2021-6-25 18:51:36

感谢楼主分享新片!
回复 支持 反对

使用道具 举报

bbgrnnji 发表于 2021-6-25 19:04:38

bbgrnnji 4

2021-6-25 19:04:38

谢谢楼主分享
回复 支持 反对

使用道具 举报

sacdhao 发表于 2021-6-25 19:48:10

sacdhao 5

2021-6-25 19:48:10


谢谢楼主分享
回复 支持 反对

使用道具 举报

wusongk 发表于 2021-6-25 20:33:27

wusongk 6

2021-6-25 20:33:27

谢谢楼主分享。
回复 支持 反对

使用道具 举报

lichore 发表于 2021-6-25 22:28:33

lichore 7

2021-6-25 22:28:33

布鲁斯南的片子,还是很感兴趣的 谢谢分享了
回复 支持 反对

使用道具 举报

huan221 发表于 2021-6-26 11:19:25

huan221 8

2021-6-26 11:19:25

没有字幕 悲催
回复 支持 反对

使用道具 举报

otherboy 发表于 2021-6-26 12:02:56

otherboy 9

2021-6-26 12:02:56

感谢分享 字幕难找
回复 支持 反对

使用道具 举报

nijat0330 发表于 2021-6-26 16:00:44

nijat0330 10

2021-6-26 16:00:44

字幕给你们,机器翻译,白送不谢

False Positive (2021) 2160p EAC3.srt

68.8 KB

中简

回复 支持 反对

使用道具 举报

BinTest 发表于 2021-6-28 13:27:34

BinTest 11

2021-6-28 13:27:34

布鲁斯南,老戏骨了,下来看看
回复 支持 反对

使用道具 举报

cdyangjun2019 发表于 2021-6-29 15:47:18

cdyangjun2019 12

2021-6-29 15:47:18

冲着皮尔斯·布鲁斯下来看看,谢谢楼主分享
回复 支持 反对

使用道具 举报

   发表回复

您需要登录后才可以回帖 登录 | 立即注册

返回列表 本版积分规则

  • 在线客服

  • 返回顶部