微博 微信

Hao4K影音

电影频道
电影封面:
片  名: 冰路营救4k
电影分类: 动作 冒险 惊悚 灾难 
国  家: 美国 
年  代: 2021年
分 辨 率: 4K(3840x2160)
电影格式: MKV|REMUX 
画质标准: HDR 
音质编码: Dolby Digital Plus Audio 
电影声道: 其他 
帧数/FPS: 23.976 帧
电影语言: 英文原版 
资源大小: 11.80 GB
导  演: 乔纳森·汉斯雷
豆瓣评分: 6.0 分
中文字幕: /thread-58773-1-1.html
剧情简介: 在加拿大北部偏远地区的一个钻石矿倒塌后,冰路卡车司机(连姆·尼森饰)必须带领救援人员完成一项不可能的任务 — 穿越结冰的海面,营救被困矿工。除了融冰和风暴,还有难以预见的威胁在等着他们。
冰路营救4k The.Ice.Road.2021.HDR.2160p.WEB.H265电影信息
  1. Video
  2. ID : 1
  3. Format : HEVC
  4. Format/Info : High Efficiency Video Coding
  5. Format profile : Main 10@L5@Main
  6. HDR format : SMPTE ST 2094 App 4, Version 1, HDR10+ Profile B compatible
  7. Codec ID : V_MPEGH/ISO/HEVC
  8. Duration : 1 h 49 min
  9. Bit rate : 14.8 Mb/s
  10. Width : 3 840 pixels
  11. Height : 2 160 pixels
  12. Display aspect ratio : 16:9
  13. Frame rate mode : Constant
  14. Frame rate : 23.976 (24000/1001) FPS
  15. Color space : YUV
  16. Chroma subsampling : 4:2:0
  17. Bit depth : 10 bits
  18. Bits/(Pixel*Frame) : 0.075
  19. Stream size : 11.3 GiB (96%)
  20. Default : Yes
  21. Forced : No
  22. Color range : Limited
  23. Color primaries : BT.2020
  24. Transfer characteristics : PQ
  25. Matrix coefficients : BT.2020 non-constant
  26. Mastering display color primaries : Display P3
  27. Mastering display luminance : min: 0.0001 cd/m2, max: 1000 cd/m2
  28. Maximum Content Light Level : 773 cd/m2
  29. Maximum Frame-Average Light Level : 281 cd/m2

  30. Audio
  31. ID : 2
  32. Format : E-AC-3
  33. Format/Info : Enhanced AC-3
  34. Commercial name : Dolby Digital Plus
  35. Codec ID : A_EAC3
  36. Duration : 1 h 49 min
  37. Bit rate mode : Constant
  38. Bit rate : 640 kb/s
  39. Channel(s) : 6 channels
  40. Channel layout : L R C LFE Ls Rs
  41. Sampling rate : 48.0 kHz
  42. Frame rate : 31.250 FPS (1536 SPF)
  43. Compression mode : Lossy
  44. Stream size : 500 MiB (4%)
  45. Title : English
  46. Language : English
  47. Service kind : Complete Main
  48. Default : No
  49. Forced : No

  50. Text #1
  51. ID : 3
  52. Format : UTF-8
  53. Codec ID : S_TEXT/UTF8
  54. Codec ID/Info : UTF-8 Plain Text
  55. Duration : 1 h 44 min
  56. Bit rate : 40 b/s
  57. Count of elements : 1112
  58. Stream size : 31.1 KiB (0%)
  59. Title : English
  60. Language : English
  61. Default : No
  62. Forced : No

  63. Text #2
  64. ID : 4
  65. Format : UTF-8
  66. Codec ID : S_TEXT/UTF8
  67. Codec ID/Info : UTF-8 Plain Text
  68. Duration : 1 h 45 min
  69. Bit rate : 48 b/s
  70. Count of elements : 1360
  71. Stream size : 37.3 KiB (0%)
  72. Title : English SDH
  73. Language : English
  74. Default : No
  75. Forced : No
复制代码


冰路营救4k The.Ice.Road.2021.HDR.2160p.WEB.H265电影下载
冰路营救4k The.Ice.Road.2021.HDR.2160p.WEB.H265【11.80GB】
[Hao4k]冰路营救4k The.Ice.Road.2021.HDR.2160p.WEB.H265-TIMECUT.torrent (59.68 KB, 售价: 2 个K币)
回复

使用道具 举报

全部回复111

56789trewq 发表于 2021-6-25 17:56:02

56789trewq 2

2021-6-25 17:56:02

太神了吧!這不是今天美國地區的NF才上架嗎?
回复 支持 1 反对 0

使用道具 举报

xyxiaofeng 发表于 2021-6-25 18:10:34

xyxiaofeng 3

2021-6-25 18:10:34

哪位老哥有字幕啊?
回复 支持 反对

使用道具 举报

ARFEI 发表于 2021-6-25 18:16:38

ARFEI 4

2021-6-25 18:16:38

xyxiaofeng 发表于 2021-6-25 18:10
哪位老哥有字幕啊?

还没字幕啊?那还是等等再下载
回复 支持 1 反对 0

使用道具 举报

cl3333 发表于 2021-6-25 18:34:13 Hao4K手机版

cl3333 5

2021-6-25 18:34:13

精彩的片子,谢谢
回复 支持 反对

使用道具 举报

凯x因素 发表于 2021-6-25 18:40:37

凯x因素 6

2021-6-25 18:40:37

谢谢!!期待连大叔的营救
回复 支持 反对

使用道具 举报

concord3303 发表于 2021-6-25 18:49:12

concord3303 7

2021-6-25 18:49:12

感谢分享 ,下来看看!
回复 支持 反对

使用道具 举报

xxw8888 发表于 2021-6-25 18:55:27 Hao4K手机版

xxw8888 8

2021-6-25 18:55:27

好片,谢分享
回复 支持 反对

使用道具 举报

bbgrnnji 发表于 2021-6-25 19:07:00

bbgrnnji 9

2021-6-25 19:07:00

连姆·尼森的片子一般还不错
回复 支持 反对

使用道具 举报

gyt 发表于 2021-6-25 19:29:13

gyt 10

2021-6-25 19:29:13

这个片子应该可以看看的
回复 支持 反对

使用道具 举报

我还有冲锋 发表于 2021-6-25 19:47:56

我还有冲锋 11

2021-6-25 19:47:56

啥时有字幕啊
回复 支持 反对

使用道具 举报

wusongk 发表于 2021-6-25 20:35:31

wusongk 12

2021-6-25 20:35:31

假阳性
回复 支持 反对

使用道具 举报

逆水船 发表于 2021-6-25 20:37:19

逆水船 13

2021-6-25 20:37:19

谢谢!!期待连大叔的营救
回复 支持 反对

使用道具 举报

农夫舅舅 发表于 2021-6-25 20:42:55

农夫舅舅 14

2021-6-25 20:42:55

卡车电影,赞
回复 支持 反对

使用道具 举报

zhoulvyu123 发表于 2021-6-25 20:47:37 Hao4K手机版

zhoulvyu123 15

2021-6-25 20:47:37

有中文吗
回复 支持 反对

使用道具 举报

acd9300 发表于 2021-6-25 21:19:21

acd9300 16

2021-6-25 21:19:21

肯定没字幕 先下载 坐等字幕
回复 支持 反对

使用道具 举报

huang_dog 发表于 2021-6-25 21:49:26

huang_dog 17

2021-6-25 21:49:26

是的年,网上没找到字幕啊,谢谢分享
回复 支持 反对

使用道具 举报

ryohazuki33 发表于 2021-6-25 22:31:15

ryohazuki33 18

2021-6-25 22:31:15

营救叔,终日救不完他的孩子
回复 支持 反对

使用道具 举报

   发表回复

您需要登录后才可以回帖 登录 | 立即注册

返回列表 本版积分规则

  • 在线客服

  • 返回顶部