微博 微信

Hao4K影音

电视剧频道
电视剧封面:
电视剧名: 傲骨之战 第五季4k
年  代: 2021  
国  家: 美国
类  别: 犯罪 剧情 
语  言: 英语
字  幕: 英文原版
上映日期: 2021-06-24
文件格式: mkv    
视频效果: 4K(3840x2160)    
资源大小: 5.41 GB
片  长: -
导  演: 布鲁克·肯尼迪 / 吉姆·麦凯 / 罗伯特·金 / 卡丽·普雷斯顿
剧情简介: 在第五季中,Diane不得不扪心自问,当失去两位顶尖律师后,她帮助Liz一起管理一家非裔美国人律师事务所是否合适。Marissa和事务所与Hal Wackner (Mandy Patinkin饰)产生了纠葛,Hal是一名芝加哥普通人,他决定在一家复印店的后院开设自己的法庭。
  Cush Jumbo和Delroy Lindo确认回归首播集,客串出演Lucca和Adrian,以恰当结束各自角色的故事线。
傲战法庭/傲骨之战 第五季4k The.Good.Fight.S05E01.HDR.2160p.WEB.H265美剧信息
  1. Video
  2. ID : 1
  3. Format : HEVC
  4. Format/Info : High Efficiency Video Coding
  5. Format profile : Main 10@L5@High
  6. HDR format : SMPTE ST 2094 App 4, Version 1, HDR10+ Profile B compatible
  7. Codec ID : V_MPEGH/ISO/HEVC
  8. Duration : 50 min 35 s
  9. Bit rate : 13.9 Mb/s
  10. Width : 3 840 pixels
  11. Height : 2 160 pixels
  12. Display aspect ratio : 16:9
  13. Frame rate mode : Constant
  14. Frame rate : 23.976 (24000/1001) FPS
  15. Color space : YUV
  16. Chroma subsampling : 4:2:0 (Type 2)
  17. Bit depth : 10 bits
  18. Bits/(Pixel*Frame) : 0.070
  19. Stream size : 4.90 GiB (95%)
  20. Default : Yes
  21. Forced : No
  22. Color range : Full
  23. Color primaries : BT.2020
  24. Transfer characteristics : PQ
  25. Matrix coefficients : BT.2020 non-constant
  26. Mastering display color primaries : Display P3
  27. Mastering display luminance : min: 0.0001 cd/m2, max: 1000 cd/m2

  28. Audio
  29. ID : 2
  30. Format : AC-3
  31. Format/Info : Audio Coding 3
  32. Commercial name : Dolby Digital
  33. Codec ID : A_AC3
  34. Duration : 50 min 35 s
  35. Bit rate mode : Constant
  36. Bit rate : 384 kb/s
  37. Channel(s) : 6 channels
  38. Channel layout : L R C LFE Ls Rs
  39. Sampling rate : 48.0 kHz
  40. Frame rate : 31.250 FPS (1536 SPF)
  41. Compression mode : Lossy
  42. Stream size : 139 MiB (3%)
  43. Language : English
  44. Service kind : Complete Main
  45. Default : Yes
  46. Forced : No

  47. Text
  48. ID : 3
  49. Format : UTF-8
  50. Codec ID : S_TEXT/UTF8
  51. Codec ID/Info : UTF-8 Plain Text
  52. Title : English
  53. Language : English
  54. Default : No
  55. Forced : No
复制代码


傲战法庭/傲骨之战 第五季4k The.Good.Fight.S05E01.HDR.2160p.WEB.H265美剧下载

傲骨之战 第五季4k The.Good.Fight.S05E01.HDR.2160p.WEB.H265【5.41GB】
[Hao4k]傲骨之战 第五季4k The.Good.Fight.S05E01.HDR.2160p.WEB.H265-GGWP.torrent (26.29 KB)
回复

使用道具 举报

全部回复2

kopmine 发表于 2021-6-26 00:12:06

kopmine 2

2021-6-26 00:12:06

这剧挺好的 就是前4季好像没资源
回复 支持 反对

使用道具 举报

getddd 发表于 2021-7-7 19:38:44

getddd 3

2021-7-7 19:38:44

第二集啥时候出呀?
回复 支持 反对

使用道具 举报

   发表回复

您需要登录后才可以回帖 登录 | 立即注册

返回列表 本版积分规则

  • 在线客服

  • 返回顶部