微博 微信

Hao4K影音

电视剧频道
电视剧封面:
电视剧名: 天才神秘会社4k
年  代: 2021  
国  家: 美国
类  别: 冒险 剧情 悬疑 喜剧 
语  言: 英语
字  幕: -
上映日期: 2021-06-25
文件格式: mkv    
视频效果: 4K(3840x2160)    
资源大小: 5.68 GB
片  长: -
导  演: 詹姆斯·博宾
剧情简介: 该剧由Tony Hale(曾为《玩具总动员4》叉叉配音)和Kristen Schaal(曾为《怪诞小镇》梅宝配音)主演,根据同名畅销系列小说改编。Tony扮演的本尼迪克特先生召集了四位具有独特才能的孤儿,让他们潜入神秘的L.I.V.E.研究所,搞清楚被称为“紧急状态”的全球危机的真相,拯救世人。
天才神秘会社4k The.Mysterious.Benedict.Society.S01E01.HDR.2160p.WEB.H265美剧信息
  1. Video
  2. ID : 1
  3. Format : HEVC
  4. Format/Info : High Efficiency Video Coding
  5. Format profile : Main 10@L5@High
  6. HDR format : SMPTE ST 2086, HDR10 compatible
  7. Codec ID : V_MPEGH/ISO/HEVC
  8. Duration : 48 min 25 s
  9. Bit rate : 16.0 Mb/s
  10. Width : 3 840 pixels
  11. Height : 2 160 pixels
  12. Display aspect ratio : 16:9
  13. Frame rate mode : Constant
  14. Frame rate : 23.976 (24000/1001) FPS
  15. Color space : YUV
  16. Chroma subsampling : 4:2:0
  17. Bit depth : 10 bits
  18. Bits/(Pixel*Frame) : 0.081
  19. Stream size : 5.42 GiB (95%)
  20. Default : Yes
  21. Forced : No
  22. Color range : Limited
  23. Color primaries : BT.2020
  24. Transfer characteristics : PQ
  25. Matrix coefficients : BT.2020 non-constant
  26. Mastering display color primaries : Display P3
  27. Mastering display luminance : min: 0.0050 cd/m2, max: 1000 cd/m2

  28. Audio
  29. ID : 2
  30. Format : E-AC-3 JOC
  31. Format/Info : Enhanced AC-3 with Joint Object Coding
  32. Commercial name : Dolby Digital Plus with Dolby Atmos
  33. Codec ID : A_EAC3
  34. Duration : 48 min 25 s
  35. Bit rate mode : Constant
  36. Bit rate : 768 kb/s
  37. Channel(s) : 6 channels
  38. Channel layout : L R C LFE Ls Rs
  39. Sampling rate : 48.0 kHz
  40. Frame rate : 31.250 FPS (1536 SPF)
  41. Compression mode : Lossy
  42. Stream size : 266 MiB (5%)
  43. Title : English
  44. Language : English
  45. Service kind : Complete Main
  46. Default : No
  47. Forced : No
  48. Complexity index : 16
  49. Number of dynamic objects : 15
  50. Bed channel count : 1 channel
  51. Bed channel configuration : LFE

  52. Text #1
  53. ID : 3
  54. Format : UTF-8
  55. Codec ID : S_TEXT/UTF8
  56. Codec ID/Info : UTF-8 Plain Text
  57. Duration : 48 min 16 s
  58. Bit rate : 57 b/s
  59. Count of elements : 608
  60. Stream size : 20.5 KiB (0%)
  61. Title : Danish
  62. Language : Danish
  63. Default : No
  64. Forced : No

  65. Text #2
  66. ID : 4
  67. Format : UTF-8
  68. Codec ID : S_TEXT/UTF8
  69. Codec ID/Info : UTF-8 Plain Text
  70. Duration : 48 min 16 s
  71. Bit rate : 56 b/s
  72. Count of elements : 610
  73. Stream size : 19.9 KiB (0%)
  74. Title : Dutch
  75. Language : Dutch
  76. Default : No
  77. Forced : No

  78. Text #3
  79. ID : 5
  80. Format : UTF-8
  81. Codec ID : S_TEXT/UTF8
  82. Codec ID/Info : UTF-8 Plain Text
  83. Duration : 46 min 39 s
  84. Bit rate : 68 b/s
  85. Count of elements : 683
  86. Stream size : 23.3 KiB (0%)
  87. Title : English SDH
  88. Language : English
  89. Default : No
  90. Forced : No

  91. Text #4
  92. ID : 6
  93. Format : UTF-8
  94. Codec ID : S_TEXT/UTF8
  95. Codec ID/Info : UTF-8 Plain Text
  96. Duration : 46 min 25 s
  97. Bit rate : 64 b/s
  98. Count of elements : 604
  99. Stream size : 21.9 KiB (0%)
  100. Title : English
  101. Language : English
  102. Default : No
  103. Forced : No

  104. Text #5
  105. ID : 7
  106. Format : UTF-8
  107. Codec ID : S_TEXT/UTF8
  108. Codec ID/Info : UTF-8 Plain Text
  109. Duration : 47 min 33 s
  110. Bit rate : 58 b/s
  111. Count of elements : 609
  112. Stream size : 20.5 KiB (0%)
  113. Title : Finnish
  114. Language : Finnish
  115. Default : No
  116. Forced : No

  117. Text #6
  118. ID : 8
  119. Format : UTF-8
  120. Codec ID : S_TEXT/UTF8
  121. Codec ID/Info : UTF-8 Plain Text
  122. Duration : 47 min 33 s
  123. Bit rate : 61 b/s
  124. Count of elements : 608
  125. Stream size : 21.4 KiB (0%)
  126. Title : French
  127. Language : French
  128. Default : No
  129. Forced : No
复制代码

天才神秘会社4k The.Mysterious.Benedict.Society.S01E01.HDR.2160p.WEB.H265美剧下载

天才神秘会社4k The.Mysterious.Benedict.Society.S01E01.HDR.2160p.WEB.H265【5.68GB】
[Hao4k]天才神秘会社4k The.Mysterious.Benedict.Society.S01E01.HDR.2160p.WEB.H265-.torrent (29.07 KB)
回复

使用道具 举报

   发表回复

您需要登录后才可以回帖 登录 | 立即注册

返回列表 本版积分规则

  • 在线客服

  • 返回顶部