微博 微信

Hao4K影音

电影频道
电影封面:
片  名: 末日戒备4k
电影分类: 动作 惊悚 
国  家: 美国 
年  代: 90年代
分 辨 率: 4K(3840x2160)
电影格式: MKV|REMUX 
画质标准: HDR10 
音质编码: DTS-HD Master Audio 
电影声道: 5.1声道 
帧数/FPS: 23.976 帧
电影语言: 英文原版 
资源大小: 16.66 GB
导  演: 米密·莱德
豆瓣评分: 6.6 分
中文字幕: -
剧情简介:  偏僻的俄罗斯驻防军区,两列火车相撞爆炸。随即发生了一场匪夷所思的核爆炸,俄罗斯境内造成重大伤亡。美国白宫反核走私情报部门的朱莉亚·凯利(妮可·基德曼 Nicole Kidman饰)博士怀疑这起核意外并非偶然发生的事故。为了追查这起爆炸的始末,查明背后的真相,朱莉亚与陆军特种部队的少尉托马斯·威尔(乔治·克鲁尼 George Clooney饰)受命展开调查。他们在艰苦的调查中,竟发现了一个惊天大阴谋。一名冒充政客的核恐怖分子已携带核弹头进入美国本土,欲炸毁设在纽约的联合国总部。
  女导演咪咪·莱德的电影处女作《末日戒备》,根据资深调查记者安德鲁·科伯恩和莱斯利·科伯恩的文章改编而成,其中素材源于科伯恩夫妇收集的解密情报和真实新闻事件。
和平制造者 / 战略杀手 / 和平缔造者/末日戒备4k The.Peacemaker.1997.2160p.WEB-DL.x265.10bit.HDR.DTS-HD.MA.5.1-4k电影信息
  1. Video
  2. ID : 1
  3. Format : HEVC
  4. Format/Info : High Efficiency Video Coding
  5. Format profile : Main 10@L5@High
  6. HDR format : SMPTE ST 2086, HDR10 compatible
  7. Codec ID : V_MPEGH/ISO/HEVC
  8. Duration : 2 h 3 min
  9. Bit rate : 14.4 Mb/s
  10. Width : 3 840 pixels
  11. Height : 1 634 pixels
  12. Display aspect ratio : 2.35:1
  13. Frame rate mode : Constant
  14. Frame rate : 23.976 FPS
  15. Color space : YUV
  16. Chroma subsampling : 4:2:0 (Type 2)
  17. Bit depth : 10 bits
  18. Bits/(Pixel*Frame) : 0.096
  19. Stream size : 12.5 GiB (75%)
  20. Default : Yes
  21. Forced : No
  22. Color range : Limited
  23. Color primaries : BT.2020
  24. Transfer characteristics : PQ
  25. Matrix coefficients : BT.2020 non-constant
  26. Mastering display color primaries : Display P3
  27. Mastering display luminance : min: 0.0050 cd/m2, max: 1000 cd/m2
  28. Maximum Content Light Level : 3261 cd/m2
  29. Maximum Frame-Average Light Level : 348 cd/m2

  30. Audio #1
  31. ID : 2
  32. ID in the original source medium : 4352 (0x1100)
  33. Format : DTS XLL
  34. Format/Info : Digital Theater Systems
  35. Commercial name : DTS-HD Master Audio
  36. Codec ID : A_DTS
  37. Duration : 2 h 3 min
  38. Bit rate mode : Variable
  39. Bit rate : 4 395 kb/s
  40. Channel(s) : 6 channels
  41. Channel layout : C L R Ls Rs LFE
  42. Sampling rate : 48.0 kHz
  43. Frame rate : 93.750 FPS (512 SPF)
  44. Bit depth : 24 bits
  45. Compression mode : Lossless
  46. Stream size : 3.80 GiB (23%)
  47. Title : DTS-HD MA 5.1
  48. Language : English
  49. Default : Yes
  50. Forced : No
  51. Original source medium : Blu-ray

  52. Audio #2
  53. ID : 3
  54. Format : AC-3
  55. Format/Info : Audio Coding 3
  56. Commercial name : Dolby Digital
  57. Codec ID : A_AC3
  58. Duration : 2 h 3 min
  59. Bit rate mode : Constant
  60. Bit rate : 384 kb/s
  61. Channel(s) : 6 channels
  62. Channel layout : L R C LFE Ls Rs
  63. Sampling rate : 48.0 kHz
  64. Frame rate : 31.250 FPS (1536 SPF)
  65. Compression mode : Lossy
  66. Stream size : 340 MiB (2%)
  67. Title : English
  68. Language : English
  69. Service kind : Complete Main
  70. Default : No
  71. Forced : No

  72. Text #1
  73. ID : 4
  74. Format : UTF-8
  75. Codec ID : S_TEXT/UTF8
  76. Codec ID/Info : UTF-8 Plain Text
  77. Duration : 1 h 58 min
  78. Bit rate : 49 b/s
  79. Count of elements : 1162
  80. Stream size : 42.5 KiB (0%)
  81. Title : English
  82. Language : English
  83. Default : Yes
  84. Forced : No

  85. Text #2
  86. ID : 5
  87. Format : UTF-8
  88. Codec ID : S_TEXT/UTF8
  89. Codec ID/Info : UTF-8 Plain Text
  90. Duration : 1 h 56 min
  91. Bit rate : 36 b/s
  92. Count of elements : 818
  93. Stream size : 31.5 KiB (0%)
  94. Title : Dutch
  95. Language : Dutch
  96. Default : No
  97. Forced : No

  98. Text #3
  99. ID : 6
  100. Format : UTF-8
  101. Codec ID : S_TEXT/UTF8
  102. Codec ID/Info : UTF-8 Plain Text
  103. Duration : 2 h 2 min
  104. Bit rate : 44 b/s
  105. Count of elements : 1160
  106. Stream size : 40.0 KiB (0%)
  107. Title : French
  108. Language : French
  109. Default : No
  110. Forced : No

  111. Text #4
  112. ID : 7
  113. Format : UTF-8
  114. Codec ID : S_TEXT/UTF8
  115. Codec ID/Info : UTF-8 Plain Text
  116. Duration : 1 h 57 min
  117. Bit rate : 48 b/s
  118. Count of elements : 1276
  119. Stream size : 41.9 KiB (0%)
  120. Title : German
  121. Language : German
  122. Default : No
  123. Forced : No
复制代码

和平制造者 / 战略杀手 / 和平缔造者/末日戒备4k The.Peacemaker.1997.2160p.WEB-DL.x265.10bit.HDR.DTS-HD.MA.5.1-4k电影下载
末日戒备4k The.Peacemaker.1997.2160p.WEB-DL.x265.10bit.HDR.DTS-HD.MA.5.1【16.66GB】
[Hao4k]末日戒备4k The.Peacemaker.1997.2160p.WEB-DL.x265.10bit.HDR.DTS-HD.MA.5.1-.torrent (83.97 KB)
回复

使用道具 举报

全部回复33

kltan9988 发表于 2021-6-27 00:03:04

kltan9988 来自 14楼

2021-6-27 00:03:04

谢谢楼主分享。

免费评分

参与人数 1K币 -100 违规 +1 收起 理由
花落无声 -100 + 1 违反论坛规则:多个主题回复相同内容(第五章第1条)

查看全部评分

回复 支持 反对

使用道具 举报

cxd98 发表于 2021-6-26 11:57:37

cxd98 2

2021-6-26 11:57:37

这个绝对值得收藏!很棒的一部电影,妮可·基德曼的表演也是可圈可点。谢谢分享!
回复 支持 反对

使用道具 举报

chengran2005 发表于 2021-6-26 12:27:37 Hao4K手机版

chengran2005 3

2021-6-26 12:27:37

谢谢分享,值得拥有!
回复 支持 反对

使用道具 举报

zdm66 发表于 2021-6-26 12:35:10

zdm66 4

2021-6-26 12:35:10

经典影片,值得收藏,谢谢楼主分享。
回复 支持 反对

使用道具 举报

ywf6168 发表于 2021-6-26 13:13:54 Hao4K手机版

ywf6168 5

2021-6-26 13:13:54

经典,收藏了,谢分享
回复 支持 反对

使用道具 举报

hhhz 发表于 2021-6-26 14:17:37

hhhz 6

2021-6-26 14:17:37

经典老片,值得一看。
回复 支持 反对

使用道具 举报

zxcv2234 发表于 2021-6-26 15:43:35

zxcv2234 7

2021-6-26 15:43:35

值得收藏,谢谢楼主分享。
回复 支持 反对

使用道具 举报

df5222333 发表于 2021-6-26 16:03:03

df5222333 8

2021-6-26 16:03:03

谢谢楼主分享
回复 支持 反对

使用道具 举报

deeper2021 发表于 2021-6-26 16:22:49

deeper2021 9

2021-6-26 16:22:49

谢楼主分享
回复 支持 反对

使用道具 举报

bbgrnnji 发表于 2021-6-26 16:49:46

bbgrnnji 10

2021-6-26 16:49:46

当年这个片子还可以
回复 支持 反对

使用道具 举报

ywrywr 发表于 2021-6-26 19:26:51

ywrywr 11

2021-6-26 19:26:51

经典,值得收藏
回复 支持 反对

使用道具 举报

宁波江南犬舍 发表于 2021-6-26 20:12:05

宁波江南犬舍 12

2021-6-26 20:12:05

感谢分享  谢谢
回复 支持 反对

使用道具 举报

街头棒士 发表于 2021-6-26 22:17:36

街头棒士 13

2021-6-26 22:17:36

谢谢分享
回复 支持 反对

使用道具 举报

Design_66 发表于 2021-6-27 08:37:13

Design_66 15

2021-6-27 08:37:13

谢谢分享
回复 支持 反对

使用道具 举报

sacdhao 发表于 2021-6-27 08:46:31

sacdhao 16

2021-6-27 08:46:31

好像 不错 的样子。。。
回复 支持 反对

使用道具 举报

wusongk 发表于 2021-6-27 09:45:29

wusongk 17

2021-6-27 09:45:29

谢谢楼主分享。
回复 支持 反对

使用道具 举报

wyk92588 发表于 2021-6-27 19:47:51

wyk92588 18

2021-6-27 19:47:51


谢谢楼主分享
回复 支持 反对

使用道具 举报

   发表回复

您需要登录后才可以回帖 登录 | 立即注册

返回列表 本版积分规则

  • 在线客服

  • 返回顶部