微博 微信

Hao4K影音

电影频道
电影封面:
片  名: 沃尔夫冈4k
电影分类: 纪录片 
国  家: 美国 
年  代: 2021年
分 辨 率: 4K(3840x2160)
电影格式: MKV|REMUX 
画质标准: HDR 
音质编码: Dolby Digital Plus Audio 
电影声道: 5.1声道 
帧数/FPS: 23.976 帧
电影语言: 英文原版 
资源大小: 8.93 GB
导  演: 大卫·贾柏
豆瓣评分:
中文字幕: -
剧情简介: An intimate portrait of the life and work of the original "celebrity chef," Wolfgang Puck.
沃尔夫冈4k Wolfgang.2021.2160p.DSNP.WEB-DL.x265.10bit.HDR.DDP5.1-纪录片信息
  1. Video
  2. ID : 1
  3. Format : HEVC
  4. Format/Info : High Efficiency Video Coding
  5. Format profile : Main 10@L5@High
  6. HDR format : SMPTE ST 2086, HDR10 compatible
  7. Codec ID : V_MPEGH/ISO/HEVC
  8. Duration : 1 h 18 min
  9. Bit rate : 16.1 Mb/s
  10. Width : 3 840 pixels
  11. Height : 2 160 pixels
  12. Display aspect ratio : 16:9
  13. Frame rate mode : Constant
  14. Frame rate : 23.976 (24000/1001) FPS
  15. Color space : YUV
  16. Chroma subsampling : 4:2:0
  17. Bit depth : 10 bits
  18. Bits/(Pixel*Frame) : 0.081
  19. Stream size : 8.79 GiB (98%)
  20. Default : Yes
  21. Forced : No
  22. Color range : Limited
  23. Color primaries : BT.2020
  24. Transfer characteristics : PQ
  25. Matrix coefficients : BT.2020 non-constant
  26. Mastering display color primaries : Display P3
  27. Mastering display luminance : min: 0.0001 cd/m2, max: 1000 cd/m2

  28. Audio
  29. ID : 2
  30. Format : E-AC-3
  31. Format/Info : Enhanced AC-3
  32. Commercial name : Dolby Digital Plus
  33. Codec ID : A_EAC3
  34. Duration : 1 h 18 min
  35. Bit rate mode : Constant
  36. Bit rate : 256 kb/s
  37. Channel(s) : 6 channels
  38. Channel layout : L R C LFE Ls Rs
  39. Sampling rate : 48.0 kHz
  40. Frame rate : 31.250 FPS (1536 SPF)
  41. Compression mode : Lossy
  42. Stream size : 143 MiB (2%)
  43. Language : English
  44. Service kind : Complete Main
  45. Default : Yes
  46. Forced : No

  47. Text #1
  48. ID : 3
  49. Format : UTF-8
  50. Codec ID : S_TEXT/UTF8
  51. Codec ID/Info : UTF-8 Plain Text
  52. Duration : 1 h 17 min
  53. Bit rate : 59 b/s
  54. Count of elements : 990
  55. Stream size : 33.9 KiB (0%)
  56. Language : Chinese
  57. Default : No
  58. Forced : No

  59. Text #2
  60. ID : 4
  61. Format : UTF-8
  62. Codec ID : S_TEXT/UTF8
  63. Codec ID/Info : UTF-8 Plain Text
  64. Duration : 1 h 17 min
  65. Bit rate : 71 b/s
  66. Count of elements : 948
  67. Stream size : 40.4 KiB (0%)
  68. Language : Danish
  69. Default : No
  70. Forced : No

  71. Text #3
  72. ID : 5
  73. Format : UTF-8
  74. Codec ID : S_TEXT/UTF8
  75. Codec ID/Info : UTF-8 Plain Text
  76. Duration : 1 h 17 min
  77. Bit rate : 76 b/s
  78. Count of elements : 901
  79. Stream size : 43.7 KiB (0%)
  80. Language : German
  81. Default : No
  82. Forced : No

  83. Text #4
  84. ID : 6
  85. Format : UTF-8
  86. Codec ID : S_TEXT/UTF8
  87. Codec ID/Info : UTF-8 Plain Text
  88. Duration : 1 h 16 min
  89. Bit rate : 83 b/s
  90. Count of elements : 998
  91. Stream size : 46.6 KiB (0%)
  92. Title : (SDH)
  93. Language : English
  94. Default : No
  95. Forced : No

  96. Text #5
  97. ID : 7
  98. Format : UTF-8
  99. Codec ID : S_TEXT/UTF8
  100. Codec ID/Info : UTF-8 Plain Text
  101. Duration : 1 h 17 min
  102. Bit rate : 71 b/s
  103. Count of elements : 955
  104. Stream size : 40.4 KiB (0%)
  105. Language : Finnish
  106. Default : No
  107. Forced : No

  108. Text #6
  109. ID : 8
  110. Format : UTF-8
  111. Codec ID : S_TEXT/UTF8
  112. Codec ID/Info : UTF-8 Plain Text
  113. Duration : 1 h 17 min
  114. Bit rate : 80 b/s
  115. Count of elements : 1006
  116. Stream size : 45.5 KiB (0%)
  117. Language : French
  118. Default : No
  119. Forced : No

  120. Text #7
  121. ID : 9
  122. Format : UTF-8
  123. Codec ID : S_TEXT/UTF8
  124. Codec ID/Info : UTF-8 Plain Text
  125. Duration : 1 h 17 min
  126. Bit rate : 74 b/s
  127. Count of elements : 954
  128. Stream size : 42.3 KiB (0%)
  129. Language : Italian
  130. Default : No
  131. Forced : No
复制代码

沃尔夫冈4k Wolfgang.2021.2160p.DSNP.WEB-DL.x265.10bit.HDR.DDP5.1-纪录片下载
沃尔夫冈4k Wolfgang.2021.2160p.DSNP.WEB-DL.x265.10bit.HDR.DDP5.1【8.93GB】
[Hao4k]沃尔夫冈4k Wolfgang.2021.2160p.DSNP.WEB-DL.x265.10bit.HDR.DDP5.1-ROCCaT.torrent (45.31 KB)
回复

使用道具 举报

全部回复5

bbgrnnji 发表于 2021-6-26 16:49:09

bbgrnnji 2

2021-6-26 16:49:09

“名人厨师”,沃尔夫冈帕克
回复 支持 1 反对 0

使用道具 举报

wusongk 发表于 2021-6-27 09:45:50

wusongk 3

2021-6-27 09:45:50

谢谢楼主分享。
回复 支持 反对

使用道具 举报

沙滩凉鞋 发表于 2021-6-27 15:05:43

沙滩凉鞋 4

2021-6-27 15:05:43

有字幕吗~、
回复 支持 反对

使用道具 举报

xuchangshu520 发表于 2021-6-30 08:39:49

xuchangshu520 5

2021-6-30 08:39:49

谢谢楼主分享
回复 支持 反对

使用道具 举报

Joker_D 发表于 2021-7-7 19:22:14

Joker_D 6

2021-7-7 19:22:14

感觉不错的样子啊
回复 支持 反对

使用道具 举报

   发表回复

您需要登录后才可以回帖 登录 | 立即注册

返回列表 本版积分规则

  • 在线客服

  • 返回顶部