微博 微信

Hao4K影音

电影频道
电影封面:
片  名: 查理·布朗,你是谁4k
电影分类: 纪录片 
国  家: 美国 
年  代: 2021年
分 辨 率: 4K(3840x2160)
电影格式: MKV|REMUX 
画质标准: HDR10 
音质编码: DTS-HD Master Audio 
电影声道: 其他 
帧数/FPS: 23.976 帧
电影语言: 英文原版 
资源大小: 9.58 GB
导  演: Michael Bonfiglio
豆瓣评分:
中文字幕: -
剧情简介: 聚焦舒尔茨、《花生漫画》以及查理·布朗和史努比等角色的故事。该剧由露皮塔·尼永奥担任旁白,德鲁·巴里摩尔、凯文·史密斯、保罗·费格等也出镜受访。
你认识查理布朗吗?(港) / 查理·布朗,你是谁?(台)/查理·布朗,你是谁4kWho.Are.You.Charlie.Brown.2021.HDR.2160p.WEB.H265-4k电影信息
  1. Video
  2. ID : 1
  3. Format : HEVC
  4. Format/Info : High Efficiency Video Coding
  5. Format profile : Main 10@L5@High
  6. HDR format : SMPTE ST 2086, HDR10 compatible
  7. Codec ID : V_MPEGH/ISO/HEVC
  8. Duration : 54 min 27 s
  9. Bit rate : 23.5 Mb/s
  10. Width : 3 840 pixels
  11. Height : 2 160 pixels
  12. Display aspect ratio : 16:9
  13. Frame rate mode : Constant
  14. Frame rate : 23.976 (24000/1001) FPS
  15. Color space : YUV
  16. Chroma subsampling : 4:2:0 (Type 2)
  17. Bit depth : 10 bits
  18. Bits/(Pixel*Frame) : 0.118
  19. Stream size : 8.96 GiB (95%)
  20. Language : English
  21. Default : Yes
  22. Forced : No
  23. Color range : Limited
  24. Color primaries : BT.2020
  25. Transfer characteristics : PQ
  26. Matrix coefficients : BT.2020 non-constant
  27. Mastering display color primaries : Display P3
  28. Mastering display luminance : min: 0.0001 cd/m2, max: 1000 cd/m2
  29. Maximum Content Light Level : 1382 cd/m2
  30. Maximum Frame-Average Light Level : 271 cd/m2

  31. Audio
  32. ID : 2
  33. Format : E-AC-3 JOC
  34. Format/Info : Enhanced AC-3 with Joint Object Coding
  35. Commercial name : Dolby Digital Plus with Dolby Atmos
  36. Codec ID : A_EAC3
  37. Duration : 54 min 27 s
  38. Bit rate mode : Constant
  39. Bit rate : 768 kb/s
  40. Channel(s) : 6 channels
  41. Channel layout : L R C LFE Ls Rs
  42. Sampling rate : 48.0 kHz
  43. Frame rate : 31.250 FPS (1536 SPF)
  44. Compression mode : Lossy
  45. Stream size : 299 MiB (3%)
  46. Language : English
  47. Service kind : Complete Main
  48. Default : Yes
  49. Forced : No
  50. Complexity index : 16
  51. Number of dynamic objects : 15
  52. Bed channel count : 1 channel
  53. Bed channel configuration : LFE

  54. Text #1
  55. ID : 3
  56. Format : UTF-8
  57. Codec ID : S_TEXT/UTF8
  58. Codec ID/Info : UTF-8 Plain Text
  59. Title : English
  60. Language : English
  61. Default : No
  62. Forced : No

  63. Text #2
  64. ID : 4
  65. Format : UTF-8
  66. Codec ID : S_TEXT/UTF8
  67. Codec ID/Info : UTF-8 Plain Text
  68. Title : Arabic
  69. Language : Arabic
  70. Default : No
  71. Forced : No

  72. Text #3
  73. ID : 5
  74. Format : UTF-8
  75. Codec ID : S_TEXT/UTF8
  76. Codec ID/Info : UTF-8 Plain Text
  77. Title : Bulgarian
  78. Language : Bulgarian
  79. Default : No
  80. Forced : No

  81. Text #4
  82. ID : 6
  83. Format : UTF-8
  84. Codec ID : S_TEXT/UTF8
  85. Codec ID/Info : UTF-8 Plain Text
  86. Title : Chinese Simplified
  87. Language : Chinese
  88. Default : No
  89. Forced : No

  90. Text #5
  91. ID : 7
  92. Format : UTF-8
  93. Codec ID : S_TEXT/UTF8
  94. Codec ID/Info : UTF-8 Plain Text
  95. Title : Chinese Traditional
  96. Language : Chinese
  97. Default : No
  98. Forced : No

  99. Text #6
  100. ID : 8
  101. Format : UTF-8
  102. Codec ID : S_TEXT/UTF8
  103. Codec ID/Info : UTF-8 Plain Text
  104. Title : Chinese Yue
  105. Language : Chinese
  106. Default : No
  107. Forced : No

  108. Text #7
  109. ID : 9
  110. Format : UTF-8
  111. Codec ID : S_TEXT/UTF8
  112. Codec ID/Info : UTF-8 Plain Text
  113. Title : Czech
  114. Language : Czech
  115. Default : No
  116. Forced : No

  117. Text #8
  118. ID : 10
  119. Format : UTF-8
  120. Codec ID : S_TEXT/UTF8
  121. Codec ID/Info : UTF-8 Plain Text
  122. Title : Danish
  123. Language : Danish
  124. Default : No
  125. Forced : No

  126. Text #9
  127. ID : 11
  128. Format : UTF-8
  129. Codec ID : S_TEXT/UTF8
  130. Codec ID/Info : UTF-8 Plain Text
  131. Title : Dutch
  132. Language : Dutch
  133. Default : No
  134. Forced : No

  135. Text #10
  136. ID : 12
  137. Format : UTF-8
  138. Codec ID : S_TEXT/UTF8
  139. Codec ID/Info : UTF-8 Plain Text
  140. Title : Dutch (Flemish)
  141. Language : Dutch
  142. Default : No
  143. Forced : No

  144. Text #11
  145. ID : 13
  146. Format : UTF-8
  147. Codec ID : S_TEXT/UTF8
  148. Codec ID/Info : UTF-8 Plain Text
  149. Title : Estonian
  150. Language : Estonian
  151. Default : No
  152. Forced : No

  153. Text #12
  154. ID : 14
  155. Format : UTF-8
  156. Codec ID : S_TEXT/UTF8
  157. Codec ID/Info : UTF-8 Plain Text
  158. Title : European Spanish
  159. Language : Spanish
  160. Default : No
  161. Forced : No
复制代码

你认识查理布朗吗?(港) / 查理·布朗,你是谁?(台)/查理·布朗,你是谁4kWho.Are.You.Charlie.Brown.2021.HDR.2160p.WEB.H265-4k电影下载

查理·布朗,你是谁4k Who.Are.You.Charlie.Brown.2021.HDR.2160p.WEB.H265【9.58GB】
[Hao4k]查理·布朗,你是谁4k Who.Are.You.Charlie.Brown.2021.HDR.2160p.WEB.H265-BI.torrent (48.71 KB, 售价: 2 个K币)
回复

使用道具 举报

全部回复8

hhhz 发表于 2021-6-26 14:16:33

hhhz 2

2021-6-26 14:16:33

史努比之父,有意思。
回复 支持 反对

使用道具 举报

bbgrnnji 发表于 2021-6-26 16:47:48

bbgrnnji 3

2021-6-26 16:47:48

这个可以有
回复 支持 反对

使用道具 举报

Design_66 发表于 2021-6-27 08:37:01

Design_66 4

2021-6-27 08:37:01

谢谢分享
回复 支持 反对

使用道具 举报

wusongk 发表于 2021-6-27 09:44:45

wusongk 5

2021-6-27 09:44:45

谢谢楼主分享。
回复 支持 反对

使用道具 举报

panbell 发表于 2021-6-27 14:47:54

panbell 6

2021-6-27 14:47:54

谢谢楼主分享
回复 支持 反对

使用道具 举报

aaaamonster 发表于 2021-6-28 17:07:19

aaaamonster 7

2021-6-28 17:07:19

谢谢楼主分享 等我有币试试
回复 支持 反对

使用道具 举报

rickyqinwq 发表于 2021-6-28 20:08:56

rickyqinwq 8

2021-6-28 20:08:56

thx for sharing !
回复 支持 反对

使用道具 举报

sacdhao 发表于 2021-6-29 11:04:49

sacdhao 9

2021-6-29 11:04:49

叫 布朗的人有点 多。。。
回复 支持 反对

使用道具 举报

   发表回复

您需要登录后才可以回帖 登录 | 立即注册

返回列表 本版积分规则

  • 在线客服

  • 返回顶部