微博 微信

Hao4K影音

电影频道
电影封面:
片  名: 海扁王2 4k
电影分类: 动作 犯罪 喜剧 
国  家: 美国 
年  代: 2013年
分 辨 率: 4K(3840x2160)
电影格式: MKV|REMUX 
画质标准: SDR 
音质编码: DTS-HD Master Audio 
电影声道: 5.1声道 
帧数/FPS: 23.976 帧
电影语言: 英文原版 
资源大小: 12.86 GB
导  演: 杰夫·瓦德洛
豆瓣评分: 6.4 分
中文字幕: -
剧情简介: 自“大老霸”牺牲后,“超杀女”明蒂(科洛·莫瑞兹 Chloe Moretz 饰)不忘匡扶正义的使命,依然穿梭城市的每一个角落惩治邪恶。而“海扁王”戴夫·莱泽斯基(亚伦·约翰逊 Aaron Johnson 饰)为了能和超杀女组成新的搭档,心甘情愿接受对方的各种严苛训练。另一方面,收养了明蒂的马库斯(Morris Chestnut 饰)希望她能过回正常校园女孩的生活,享受恋爱和友情点缀的人生。眼见明蒂放弃了正义使者的身份,戴夫只得转向由洗心革面的黑帮打手“上校”(金·凯瑞 Jim Carrey 饰)组成的正义永存联盟,和一群原本生活中的废柴为了正义而奋斗。与此同时,失去父母的克里斯(克里斯托夫·梅兹-普莱瑟 Christopher Mintz-Plasse 饰)狂性大发,更名“臭屁王(MotherFu*ker)”,他网罗了一群亡命之徒,发誓摧毁海扁王及其伙伴们的正义事业。
  正邪大乱斗在这座城市里拉开帷幕……
劲揪侠2(港) / 特攻联盟2(台) / 海扁王2:全力以赴 / 海扁王2:危在蛋夕/海扁王2 4k Kick-Ass.2.2013.2160p.WEB-DL.x265.8bit.SDR.DTS-HD.MA.5.1-4k电影信息
  1. Video
  2. ID : 1
  3. Format : HEVC
  4. Format/Info : High Efficiency Video Coding
  5. Format profile : Main@L5@High
  6. Codec ID : V_MPEGH/ISO/HEVC
  7. Duration : 1 h 42 min
  8. Bit rate : 14.7 Mb/s
  9. Width : 3 840 pixels
  10. Height : 2 160 pixels
  11. Display aspect ratio : 16:9
  12. Frame rate mode : Constant
  13. Frame rate : 23.976 (23976/1000) FPS
  14. Original frame rate : 23.976 (24000/1001) FPS
  15. Color space : YUV
  16. Chroma subsampling : 4:2:0
  17. Bit depth : 8 bits
  18. Bits/(Pixel*Frame) : 0.074
  19. Stream size : 10.6 GiB (82%)
  20. Default : Yes
  21. Forced : No
  22. Color range : Limited
  23. Color primaries : BT.709
  24. Transfer characteristics : BT.709
  25. Matrix coefficients : BT.709

  26. Audio #1
  27. ID : 2
  28. Format : DTS XLL
  29. Format/Info : Digital Theater Systems
  30. Commercial name : DTS-HD Master Audio
  31. Codec ID : A_DTS
  32. Duration : 1 h 43 min
  33. Bit rate mode : Variable
  34. Bit rate : 2 106 kb/s
  35. Channel(s) : 6 channels
  36. Channel layout : C L R Ls Rs LFE
  37. Sampling rate : 48.0 kHz
  38. Frame rate : 93.750 FPS (512 SPF)
  39. Bit depth : 16 bits
  40. Compression mode : Lossless
  41. Delay relative to video : 208 ms
  42. Stream size : 1.51 GiB (12%)
  43. Title : DTS-HD MA 5.1
  44. Language : English
  45. Default : Yes
  46. Forced : No

  47. Audio #2
  48. ID : 3
  49. Format : AC-3
  50. Format/Info : Audio Coding 3
  51. Commercial name : Dolby Digital
  52. Codec ID : A_AC3
  53. Duration : 1 h 43 min
  54. Bit rate mode : Constant
  55. Bit rate : 640 kb/s
  56. Channel(s) : 6 channels
  57. Channel layout : L R C LFE Ls Rs
  58. Sampling rate : 48.0 kHz
  59. Frame rate : 31.250 FPS (1536 SPF)
  60. Compression mode : Lossy
  61. Stream size : 472 MiB (4%)
  62. Title : DD 5.1
  63. Language : English
  64. Service kind : Complete Main
  65. Default : No
  66. Forced : No

  67. Text #1
  68. ID : 4
  69. Format : UTF-8
  70. Codec ID : S_TEXT/UTF8
  71. Codec ID/Info : UTF-8 Plain Text
  72. Duration : 1 h 41 min
  73. Bit rate : 85 b/s
  74. Count of elements : 1786
  75. Stream size : 63.9 KiB (0%)
  76. Title : SRT
  77. Language : English
  78. Default : Yes
  79. Forced : No

  80. Text #2
  81. ID : 5
  82. Format : PGS
  83. Muxing mode : zlib
  84. Codec ID : S_HDMV/PGS
  85. Codec ID/Info : Picture based subtitle format used on BDs/HD-DVDs
  86. Duration : 1 h 42 min
  87. Bit rate : 51.6 kb/s
  88. Count of elements : 3522
  89. Stream size : 37.7 MiB (0%)
  90. Title : English (SDH)
  91. Language : English
  92. Default : No
  93. Forced : No

  94. Text #3
  95. ID : 6
  96. Format : PGS
  97. Muxing mode : zlib
  98. Codec ID : S_HDMV/PGS
  99. Codec ID/Info : Picture based subtitle format used on BDs/HD-DVDs
  100. Duration : 1 h 42 min
  101. Bit rate : 20.0 kb/s
  102. Count of elements : 2562
  103. Stream size : 14.6 MiB (0%)
  104. Title : Arabic
  105. Language : Arabic
  106. Default : No
  107. Forced : No

  108. Text #4
  109. ID : 7
  110. Format : PGS
  111. Muxing mode : zlib
  112. Codec ID : S_HDMV/PGS
  113. Codec ID/Info : Picture based subtitle format used on BDs/HD-DVDs
  114. Duration : 1 h 42 min
  115. Bit rate : 35.2 kb/s
  116. Count of elements : 2114
  117. Stream size : 25.7 MiB (0%)
  118. Title : Bulgarian
  119. Language : Bulgarian
  120. Default : No
  121. Forced : No

  122. Text #5
  123. ID : 8
  124. Format : PGS
  125. Muxing mode : zlib
  126. Codec ID : S_HDMV/PGS
  127. Codec ID/Info : Picture based subtitle format used on BDs/HD-DVDs
  128. Duration : 1 h 42 min
  129. Bit rate : 26.4 kb/s
  130. Count of elements : 2584
  131. Stream size : 19.3 MiB (0%)
  132. Title : Chinese (Cantonese)
  133. Language : Chinese
  134. Default : No
  135. Forced : No
复制代码

劲揪侠2(港) / 特攻联盟2(台) / 海扁王2:全力以赴 / 海扁王2:危在蛋夕/海扁王2 4k Kick-Ass.2.2013.2160p.WEB-DL.x265.8bit.SDR.DTS-HD.MA.5.1-4k电影下载

海扁王2 4k Kick-Ass.2.2013.2160p.WEB-DL.x265.8bit.SDR.DTS-HD.MA.5.1【12.86GB】
[Hao4k]海扁王2 4k Kick-Ass.2.2013.2160p.WEB-DL.x265.8bit.SDR.DTS-HD.MA.5.1-SWTYBLZ.torrent (64.96 KB)
回复

使用道具 举报

全部回复20

ttdwht 发表于 2021-6-26 13:26:47

ttdwht 2

2021-6-26 13:26:47

多谢分享
回复 支持 反对

使用道具 举报

zxcv2234 发表于 2021-6-26 15:52:54

zxcv2234 3

2021-6-26 15:52:54

支持论坛,学习。
回复 支持 反对

使用道具 举报

zxcv2234 发表于 2021-6-26 15:56:24

zxcv2234 4

2021-6-26 15:56:24

hao4 4K电影资源就是好,值得推荐。
回复 支持 反对

使用道具 举报

zxcv2234 发表于 2021-6-26 15:58:15

zxcv2234 5

2021-6-26 15:58:15

网站4K资源多,效果好,赞。
回复 支持 反对

使用道具 举报

bbgrnnji 发表于 2021-6-26 16:47:09

bbgrnnji 6

2021-6-26 16:47:09

怎么都2了,1还没下呢
回复 支持 反对

使用道具 举报

Design_66 发表于 2021-6-27 08:36:43

Design_66 7

2021-6-27 08:36:43

谢谢分享
回复 支持 反对

使用道具 举报

liyun80000 发表于 2021-6-27 12:00:51

liyun80000 8

2021-6-27 12:00:51

谢谢楼主分享
回复 支持 反对

使用道具 举报

shengfan007 发表于 2021-6-27 13:43:19

shengfan007 9

2021-6-27 13:43:19

第一集真的比第二集好看
回复 支持 反对

使用道具 举报

shengfan007 发表于 2021-6-27 13:44:04

shengfan007 10

2021-6-27 13:44:04

可能因为第二集明显不如第一集好,所以才没有了第三集
回复 支持 反对

使用道具 举报

shengfan007 发表于 2021-6-27 13:45:19

shengfan007 11

2021-6-27 13:45:19

另外作为4K资源,体积实在是太小了,码率过低,画面质量一定不会好
回复 支持 反对

使用道具 举报

wusongk 发表于 2021-6-28 16:58:31

wusongk 12

2021-6-28 16:58:31

谢谢楼主分享。
回复 支持 反对

使用道具 举报

rickyqinwq 发表于 2021-6-28 20:08:36

rickyqinwq 13

2021-6-28 20:08:36

thx for sharing !
回复 支持 反对

使用道具 举报

sb123123 发表于 2021-6-28 22:52:29

sb123123 14

2021-6-28 22:52:29

好像很久之前看的
回复 支持 反对

使用道具 举报

sacdhao 发表于 2021-6-29 11:04:30

sacdhao 15

2021-6-29 11:04:30

看过的,但还是支持一下
回复 支持 反对

使用道具 举报

索隆24 发表于 2021-6-29 14:39:58 Hao4K手机版

索隆24 16

2021-6-29 14:39:58

谢谢啦!
回复 支持 反对

使用道具 举报

fsyms 发表于 2021-6-30 16:45:38

fsyms 17

2021-6-30 16:45:38

超杀女长大了,没有第一部里的感觉好了
回复 支持 反对

使用道具 举报

raymondhwm 发表于 2021-7-1 19:28:17

raymondhwm 18

2021-7-1 19:28:17

多谢分享
回复 支持 反对

使用道具 举报

   发表回复

您需要登录后才可以回帖 登录 | 立即注册

返回列表 本版积分规则

  • 在线客服

  • 返回顶部