微博 微信

Hao4K影音

电影频道
电影封面:
片  名: 基努猫4k
电影分类: 喜剧 
国  家: 美国 
年  代: 2016年
分 辨 率: 4K(3840x2160)
电影格式: MKV|REMUX 
画质标准: HDR 
音质编码: DTS-HD Master Audio 
电影声道: 5.1声道 
帧数/FPS: 23.976 帧
电影语言: 英文原版 
资源大小: 12.98 GB
导  演: 彼得·阿特西奥
豆瓣评分: 5.6 分
中文字幕: -
剧情简介: 故事讲述鲍伯刚和恋情长跑的女友分手,心碎不已时巧遇一只可爱到不行的流浪猫,而鲍伯好友克拉伦斯更被小猫萌翻,两人给小猫取名‘Keanu’,而‘百炼钢化为绕指柔’大男人从此化身猫奴,每天陪猫、爱猫,与猫为伍。某天鲍伯的家被流氓集团闯空门,更惨的是他们的爱猫‘Keanu’竟然被绑架!为了营救爱猫,两人决定混入贩卖毒品的圈子,为方便接近流氓集团......
基努猫4k Keanu.2016.2160p.WEB-DL.x265.10bit.HDR.DTS-HD.MA.5.1-4k电影信息
  1. Video
  2. ID : 1
  3. Format : HEVC
  4. Format/Info : High Efficiency Video Coding
  5. Format profile : Main 10@L5@High
  6. HDR format : SMPTE ST 2086, HDR10 compatible
  7. Codec ID : V_MPEGH/ISO/HEVC
  8. Duration : 1 h 39 min
  9. Bit rate : 14.4 Mb/s
  10. Width : 3 840 pixels
  11. Height : 1 600 pixels
  12. Display aspect ratio : 2.40:1
  13. Frame rate mode : Constant
  14. Frame rate : 23.976 FPS
  15. Color space : YUV
  16. Chroma subsampling : 4:2:0 (Type 2)
  17. Bit depth : 10 bits
  18. Bits/(Pixel*Frame) : 0.098
  19. Stream size : 10.1 GiB (78%)
  20. Language : English
  21. Default : Yes
  22. Forced : No
  23. Color range : Limited
  24. Color primaries : BT.2020
  25. Transfer characteristics : PQ
  26. Matrix coefficients : BT.2020 non-constant
  27. Mastering display color primaries : BT.2020
  28. Mastering display luminance : min: 0.0050 cd/m2, max: 1000 cd/m2
  29. Maximum Content Light Level : 852 cd/m2
  30. Maximum Frame-Average Light Level : 425 cd/m2

  31. Audio #1
  32. ID : 2
  33. Format : DTS XLL
  34. Format/Info : Digital Theater Systems
  35. Commercial name : DTS-HD Master Audio
  36. Codec ID : A_DTS
  37. Duration : 1 h 39 min
  38. Bit rate mode : Variable
  39. Bit rate : 3 783 kb/s
  40. Channel(s) : 6 channels
  41. Channel layout : C L R Ls Rs LFE
  42. Sampling rate : 48.0 kHz
  43. Frame rate : 93.750 FPS (512 SPF)
  44. Bit depth : 24 bits
  45. Compression mode : Lossless
  46. Delay relative to video : 6 ms
  47. Stream size : 2.64 GiB (20%)
  48. Title : DTS-HD MA 5.1
  49. Language : English
  50. Default : Yes
  51. Forced : No

  52. Audio #2
  53. ID : 3
  54. Format : AC-3
  55. Format/Info : Audio Coding 3
  56. Commercial name : Dolby Digital
  57. Codec ID : A_AC3
  58. Duration : 1 h 39 min
  59. Bit rate mode : Constant
  60. Bit rate : 384 kb/s
  61. Channel(s) : 6 channels
  62. Channel layout : L R C LFE Ls Rs
  63. Sampling rate : 48.0 kHz
  64. Frame rate : 31.250 FPS (1536 SPF)
  65. Compression mode : Lossy
  66. Stream size : 274 MiB (2%)
  67. Language : English
  68. Service kind : Complete Main
  69. Default : No
  70. Forced : No

  71. Text #1
  72. ID : 4
  73. Format : UTF-8
  74. Codec ID : S_TEXT/UTF8
  75. Codec ID/Info : UTF-8 Plain Text
  76. Duration : 1 h 33 min
  77. Bit rate : 77 b/s
  78. Count of elements : 1938
  79. Stream size : 52.8 KiB (0%)
  80. Language : English
  81. Default : Yes
  82. Forced : No

  83. Text #2
  84. ID : 5
  85. Format : UTF-8
  86. Codec ID : S_TEXT/UTF8
  87. Codec ID/Info : UTF-8 Plain Text
  88. Duration : 1 h 38 min
  89. Bit rate : 109 b/s
  90. Count of elements : 1914
  91. Stream size : 79.0 KiB (0%)
  92. Language : Arabic
  93. Default : No
  94. Forced : No

  95. Text #3
  96. ID : 6
  97. Format : UTF-8
  98. Codec ID : S_TEXT/UTF8
  99. Codec ID/Info : UTF-8 Plain Text
  100. Duration : 1 h 33 min
  101. Bit rate : 112 b/s
  102. Count of elements : 1911
  103. Stream size : 76.9 KiB (0%)
  104. Language : Bulgarian
  105. Default : No
  106. Forced : No

  107. Text #4
  108. ID : 7
  109. Format : UTF-8
  110. Codec ID : S_TEXT/UTF8
  111. Codec ID/Info : UTF-8 Plain Text
  112. Duration : 1 h 38 min
  113. Bit rate : 62 b/s
  114. Count of elements : 1908
  115. Stream size : 44.8 KiB (0%)
  116. Language : Czech
  117. Default : No
  118. Forced : No

  119. Text #5
  120. ID : 8
  121. Format : UTF-8
  122. Codec ID : S_TEXT/UTF8
  123. Codec ID/Info : UTF-8 Plain Text
  124. Duration : 1 h 33 min
  125. Bit rate : 56 b/s
  126. Count of elements : 1911
  127. Stream size : 38.7 KiB (0%)
  128. Language : Chinese
  129. Default : No
  130. Forced : No

  131. Text #6
  132. ID : 9
  133. Format : UTF-8
  134. Codec ID : S_TEXT/UTF8
  135. Codec ID/Info : UTF-8 Plain Text
  136. Duration : 1 h 38 min
  137. Bit rate : 65 b/s
  138. Count of elements : 1904
  139. Stream size : 47.0 KiB (0%)
  140. Language : Danish
  141. Default : No
  142. Forced : No

  143. Text #7
  144. ID : 10
  145. Format : UTF-8
  146. Codec ID : S_TEXT/UTF8
  147. Codec ID/Info : UTF-8 Plain Text
  148. Duration : 1 h 33 min
  149. Bit rate : 88 b/s
  150. Count of elements : 1860
  151. Stream size : 60.3 KiB (0%)
  152. Language : German
  153. Default : No
  154. Forced : No

  155. Text #8
  156. ID : 11
  157. Format : UTF-8
  158. Codec ID : S_TEXT/UTF8
  159. Codec ID/Info : UTF-8 Plain Text
  160. Duration : 1 h 38 min
  161. Bit rate : 105 b/s
  162. Count of elements : 1912
  163. Stream size : 76.2 KiB (0%)
  164. Language : Greek
  165. Default : No
  166. Forced : No
复制代码


基努猫4k Keanu.2016.2160p.WEB-DL.x265.10bit.HDR.DTS-HD.MA.5.1-4k电影下载

基努猫4k Keanu.2016.2160p.WEB-DL.x265.10bit.HDR.DTS-HD.MA.5.1【12.98GB】
[Hao4K]基努猫4K Keanu.2016.2160p.WEB-DL.x265.10bit.HDR.DTS-HD.MA.5.1-SWTYBLZ.torrent (65.54 KB)

相关帖子

回复

使用道具 举报

全部回复19

ywf6168 发表于 2021-6-26 13:04:51 Hao4K手机版

ywf6168 2

2021-6-26 13:04:51

应该好看,下吧,谢分享
回复 支持 反对

使用道具 举报

xuchangshu520 发表于 2021-6-26 14:16:12

xuchangshu520 3

2021-6-26 14:16:12

谢谢分享
回复 支持 反对

使用道具 举报

bbgrnnji 发表于 2021-6-26 16:46:03

bbgrnnji 4

2021-6-26 16:46:03

这个海报有意思
回复 支持 反对

使用道具 举报

gigizw 发表于 2021-6-26 17:26:52

gigizw 5

2021-6-26 17:26:52

这不是集合皮尔么怎么变了
回复 支持 反对

使用道具 举报

pilates 发表于 2021-6-26 20:22:46

pilates 6

2021-6-26 20:22:46

感謝分享
回复 支持 反对

使用道具 举报

zx539688 发表于 2021-6-27 03:28:06

zx539688 7

2021-6-27 03:28:06

就冲这两货 必须下载啊
回复 支持 反对

使用道具 举报

sacdhao 发表于 2021-6-27 08:45:58

sacdhao 8

2021-6-27 08:45:58

李维斯的宠物?hh
回复 支持 反对

使用道具 举报

wusongk 发表于 2021-6-27 09:44:24

wusongk 9

2021-6-27 09:44:24

谢谢楼主分享。
回复 支持 反对

使用道具 举报

月光麦田 发表于 2021-6-27 14:15:34

月光麦田 10

2021-6-27 14:15:34

谢谢分享
回复 支持 反对

使用道具 举报

panbell 发表于 2021-6-27 14:47:30

panbell 11

2021-6-27 14:47:30

谢谢楼主分享。
回复 支持 反对

使用道具 举报

56789trewq 发表于 2021-6-28 09:06:58

56789trewq 12

2021-6-28 09:06:58

感謝樓主分享好電影,希望以後還能繼續看到更多的資源!
回复 支持 反对

使用道具 举报

zyc17052 发表于 2021-6-28 09:26:12

zyc17052 13

2021-6-28 09:26:12

感谢楼主 谢谢
回复 支持 反对

使用道具 举报

affece 发表于 2021-6-28 10:33:22

affece 14

2021-6-28 10:33:22

同样冲这两货 下来看看
回复 支持 反对

使用道具 举报

msnzhao 发表于 2021-6-28 11:57:31

msnzhao 15

2021-6-28 11:57:31

下载下来看看先
回复 支持 反对

使用道具 举报

rickyqinwq 发表于 2021-6-28 20:08:19

rickyqinwq 16

2021-6-28 20:08:19

thx for sharing !
回复 支持 反对

使用道具 举报

woxiangshar2 发表于 2021-6-28 22:33:16

woxiangshar2 17

2021-6-28 22:33:16

感谢分享
回复 支持 反对

使用道具 举报

kskchn 发表于 2021-6-29 21:19:45

kskchn 18

2021-6-29 21:19:45

虽然是这两兄弟主演,但是这电影没有短剧好看
回复 支持 反对

使用道具 举报

   发表回复

您需要登录后才可以回帖 登录 | 立即注册

返回列表 本版积分规则

  • 在线客服

  • 返回顶部