微博 微信

Hao4K影音

电影频道
电影封面:
片  名: 关灯后4k
电影分类: 恐怖 
国  家: 美国 
年  代: 2016年
分 辨 率: 4K(3840x2160)
电影格式: MKV|REMUX 
画质标准: HDR 
音质编码: DTS-HD Master Audio 
电影声道: 5.1声道 
帧数/FPS: 23.976 帧
电影语言: 英文原版 
资源大小: 10.32 GB
导  演: 大卫·F·桑德伯格
豆瓣评分: 6.8 分
中文字幕: -
剧情简介: 瑞贝卡(泰莉莎·帕尔墨 Teresa Palmer 饰)早早离开了母亲索菲(玛丽亚·贝罗 Maria Bello 饰),独自生活,之后索菲和保罗(比利·伯克 Billy Burke 饰)结婚,瑞贝卡有了一位名为马丁(加布里埃尔·贝特曼 Gabriel Bateman 饰)的同母异父的弟弟。然而,保罗在一场事故中死于非命,索菲因此陷入了悲伤和绝望之中,与此同时,马丁发现,妈妈常常会对着黑暗窃窃私语,似乎那里隐藏着一位“不速之客”。
  精神备受折磨的马丁向瑞贝卡求助,瑞贝卡因此想起了自己童年时代发生过的与此极为相似的事件。经过调查,这位隐藏在黑暗之中的神秘人物名为戴安娜(艾丽西娅·维拉-贝利 Alicia Vela-Bailey 饰),曾是母亲住院其间最好的朋友,之后死于一场医疗事故,如今,戴安娜的亡魂再度回到了索菲的身边,她要这位她最好的朋友永远的和她在一起,任何企图接近的人都将面临死亡的威胁。
切勿关灯(港) / 鬼关灯(台) / 关灯以后 / 关灯有鬼/关灯后4k Lights.Out.2016.2160p.WEB-DL.x265.10bit.HDR.DTS-HD.MA.5.1-4k电影信息
  1. Video
  2. ID : 1
  3. Format : HEVC
  4. Format/Info : High Efficiency Video Coding
  5. Format profile : Main 10@L5@High
  6. HDR format : SMPTE ST 2086, HDR10 compatible
  7. Codec ID : V_MPEGH/ISO/HEVC
  8. Duration : 1 h 20 min
  9. Bit rate : 14.4 Mb/s
  10. Width : 3 840 pixels
  11. Height : 1 600 pixels
  12. Display aspect ratio : 2.40:1
  13. Frame rate mode : Constant
  14. Frame rate : 23.976 FPS
  15. Color space : YUV
  16. Chroma subsampling : 4:2:0 (Type 2)
  17. Bit depth : 10 bits
  18. Bits/(Pixel*Frame) : 0.098
  19. Stream size : 8.13 GiB (79%)
  20. Language : English
  21. Default : Yes
  22. Forced : No
  23. Color range : Limited
  24. Color primaries : BT.2020
  25. Transfer characteristics : PQ
  26. Matrix coefficients : BT.2020 non-constant
  27. Mastering display color primaries : BT.2020
  28. Mastering display luminance : min: 0.0050 cd/m2, max: 1000 cd/m2
  29. Maximum Content Light Level : 5638 cd/m2
  30. Maximum Frame-Average Light Level : 1476 cd/m2

  31. Audio #1
  32. ID : 2
  33. Format : DTS XLL
  34. Format/Info : Digital Theater Systems
  35. Commercial name : DTS-HD Master Audio
  36. Codec ID : A_DTS
  37. Duration : 1 h 20 min
  38. Bit rate mode : Variable
  39. Bit rate : 3 477 kb/s
  40. Channel(s) : 6 channels
  41. Channel layout : C L R Ls Rs LFE
  42. Sampling rate : 48.0 kHz
  43. Frame rate : 93.750 FPS (512 SPF)
  44. Bit depth : 24 bits
  45. Compression mode : Lossless
  46. Delay relative to video : 3 ms
  47. Stream size : 1.97 GiB (19%)
  48. Title : DTS-HD MA 5.1
  49. Language : English
  50. Default : Yes
  51. Forced : No

  52. Audio #2
  53. ID : 3
  54. Format : AC-3
  55. Format/Info : Audio Coding 3
  56. Commercial name : Dolby Digital
  57. Codec ID : A_AC3
  58. Duration : 1 h 20 min
  59. Bit rate mode : Constant
  60. Bit rate : 384 kb/s
  61. Channel(s) : 6 channels
  62. Channel layout : L R C LFE Ls Rs
  63. Sampling rate : 48.0 kHz
  64. Frame rate : 31.250 FPS (1536 SPF)
  65. Compression mode : Lossy
  66. Stream size : 222 MiB (2%)
  67. Title : DD 5.1
  68. Language : English
  69. Service kind : Complete Main
  70. Default : No
  71. Forced : No

  72. Text #1
  73. ID : 4
  74. Format : UTF-8
  75. Codec ID : S_TEXT/UTF8
  76. Codec ID/Info : UTF-8 Plain Text
  77. Duration : 1 h 14 min
  78. Bit rate : 35 b/s
  79. Count of elements : 791
  80. Stream size : 19.5 KiB (0%)
  81. Language : English
  82. Default : Yes
  83. Forced : No

  84. Text #2
  85. ID : 5
  86. Format : UTF-8
  87. Codec ID : S_TEXT/UTF8
  88. Codec ID/Info : UTF-8 Plain Text
  89. Duration : 1 h 19 min
  90. Bit rate : 52 b/s
  91. Count of elements : 806
  92. Stream size : 30.6 KiB (0%)
  93. Language : Arabic
  94. Default : No
  95. Forced : No

  96. Text #3
  97. ID : 6
  98. Format : UTF-8
  99. Codec ID : S_TEXT/UTF8
  100. Codec ID/Info : UTF-8 Plain Text
  101. Duration : 1 h 19 min
  102. Bit rate : 49 b/s
  103. Count of elements : 813
  104. Stream size : 28.7 KiB (0%)
  105. Language : Bulgarian
  106. Default : No
  107. Forced : No

  108. Text #4
  109. ID : 7
  110. Format : UTF-8
  111. Codec ID : S_TEXT/UTF8
  112. Codec ID/Info : UTF-8 Plain Text
  113. Duration : 1 h 19 min
  114. Bit rate : 31 b/s
  115. Count of elements : 817
  116. Stream size : 18.2 KiB (0%)
  117. Language : Czech
  118. Default : No
  119. Forced : No

  120. Text #5
  121. ID : 8
  122. Format : UTF-8
  123. Codec ID : S_TEXT/UTF8
  124. Codec ID/Info : UTF-8 Plain Text
  125. Duration : 1 h 19 min
  126. Bit rate : 26 b/s
  127. Count of elements : 810
  128. Stream size : 15.4 KiB (0%)
  129. Language : Chinese
  130. Default : No
  131. Forced : No

  132. Text #6
  133. ID : 9
  134. Format : UTF-8
  135. Codec ID : S_TEXT/UTF8
  136. Codec ID/Info : UTF-8 Plain Text
  137. Duration : 1 h 19 min
  138. Bit rate : 32 b/s
  139. Count of elements : 605
  140. Stream size : 19.2 KiB (0%)
  141. Language : Danish
  142. Default : No
  143. Forced : No

  144. Text #7
  145. ID : 10
  146. Format : UTF-8
  147. Codec ID : S_TEXT/UTF8
  148. Codec ID/Info : UTF-8 Plain Text
  149. Duration : 1 h 14 min
  150. Bit rate : 35 b/s
  151. Count of elements : 796
  152. Stream size : 19.3 KiB (0%)
  153. Language : German
  154. Default : No
  155. Forced : No

  156. Text #8
  157. ID : 11
  158. Format : UTF-8
  159. Codec ID : S_TEXT/UTF8
  160. Codec ID/Info : UTF-8 Plain Text
  161. Duration : 1 h 19 min
  162. Bit rate : 56 b/s
  163. Count of elements : 806
  164. Stream size : 32.8 KiB (0%)
  165. Language : Greek
  166. Default : No
  167. Forced : No

  168. Text #9
  169. ID : 12
  170. Format : UTF-8
  171. Codec ID : S_TEXT/UTF8
  172. Codec ID/Info : UTF-8 Plain Text
  173. Duration : 1 h 19 min
  174. Bit rate : 26 b/s
  175. Count of elements : 829
  176. Stream size : 15.5 KiB (0%)
  177. Language : Estonian
  178. Default : No
  179. Forced : No

  180. Text #10
  181. ID : 13
  182. Format : UTF-8
  183. Codec ID : S_TEXT/UTF8
  184. Codec ID/Info : UTF-8 Plain Text
  185. Duration : 1 h 19 min
  186. Bit rate : 29 b/s
  187. Count of elements : 765
  188. Stream size : 17.1 KiB (0%)
  189. Language : Finnish
  190. Default : No
  191. Forced : No

  192. Text #11
  193. ID : 14
  194. Format : UTF-8
  195. Codec ID : S_TEXT/UTF8
  196. Codec ID/Info : UTF-8 Plain Text
  197. Duration : 1 h 19 min
  198. Bit rate : 33 b/s
  199. Count of elements : 818
  200. Stream size : 19.8 KiB (0%)
  201. Language : French
  202. Default : No
  203. Forced : No
复制代码


切勿关灯(港) / 鬼关灯(台) / 关灯以后 / 关灯有鬼/关灯后4k Lights.Out.2016.2160p.WEB-DL.x265.10bit.HDR.DTS-HD.MA.5.1-4k电影下载
关灯后4k Lights.Out.2016.2160p.WEB-DL.x265.10bit.HDR.DTS-HD.MA.5.1【10.32GB】
[Hao4k]关灯后4k Lights.Out.2016.2160p.WEB-DL.x265.10bit.HDR.DTS-HD.MA.5.1-SWTYBLZ.torrent (52.25 KB)
回复

使用道具 举报

全部回复23

realuckydx 发表于 2021-6-26 11:40:28

realuckydx 2

2021-6-26 11:40:28

牛了,最想下的资源之一
回复 支持 反对

使用道具 举报

yangly 发表于 2021-6-26 12:52:53 Hao4K手机版

yangly 3

2021-6-26 12:52:53

太恐怖就不下了,费时和惊吓
回复 支持 反对

使用道具 举报

suki86 发表于 2021-6-26 14:17:51

suki86 4

2021-6-26 14:17:51

好看刺激啊这部
回复 支持 反对

使用道具 举报

bbgrnnji 发表于 2021-6-26 16:32:41

bbgrnnji 5

2021-6-26 16:32:41

差点错过了
回复 支持 反对

使用道具 举报

宁波江南犬舍 发表于 2021-6-26 20:09:24

宁波江南犬舍 6

2021-6-26 20:09:24

太好了   收了 收了  感谢分享
回复 支持 反对

使用道具 举报

pilates 发表于 2021-6-26 20:21:41

pilates 7

2021-6-26 20:21:41

感謝分享
回复 支持 反对

使用道具 举报

liyun80000 发表于 2021-6-26 21:20:19

liyun80000 8

2021-6-26 21:20:19

感谢楼主分享资源
回复 支持 反对

使用道具 举报

月光麦田 发表于 2021-6-26 21:44:24

月光麦田 9

2021-6-26 21:44:24

谢谢分享
回复 支持 反对

使用道具 举报

宋宝宝阳 发表于 2021-6-27 00:11:38 Hao4K手机版

宋宝宝阳 10

2021-6-27 00:11:38

谢谢楼主分享
回复 支持 反对

使用道具 举报

Design_66 发表于 2021-6-27 08:36:05

Design_66 11

2021-6-27 08:36:05

谢谢分享
回复 支持 反对

使用道具 举报

sacdhao 发表于 2021-6-27 08:44:51

sacdhao 12

2021-6-27 08:44:51


谢谢楼主分享...
回复 支持 反对

使用道具 举报

wusongk 发表于 2021-6-27 09:44:06

wusongk 13

2021-6-27 09:44:06

谢谢楼主分享。
回复 支持 反对

使用道具 举报

lqy0500 发表于 2021-6-27 10:35:58

lqy0500 14

2021-6-27 10:35:58

感谢分享
回复 支持 反对

使用道具 举报

dk30129 发表于 2021-6-28 08:53:39

dk30129 15

2021-6-28 08:53:39

谢谢分享,顶你!!!
回复 支持 反对

使用道具 举报

5555pmn 发表于 2021-6-28 10:12:55

5555pmn 16

2021-6-28 10:12:55

感谢分享,不敢看咋办
回复 支持 反对

使用道具 举报

凭顺意 发表于 2021-6-28 13:04:35

凭顺意 17

2021-6-28 13:04:35

最恐怖的恐怖片,下一部留着吓唬吓唬人
回复 支持 反对

使用道具 举报

rickyqinwq 发表于 2021-6-28 20:07:46

rickyqinwq 18

2021-6-28 20:07:46

thx for sharing !
回复 支持 反对

使用道具 举报

   发表回复

您需要登录后才可以回帖 登录 | 立即注册

返回列表 本版积分规则

  • 在线客服

  • 返回顶部