微博 微信

Hao4K影音

电影频道
电影封面:
片  名: 斯隆女士4k
电影分类: 剧情 悬疑 
国  家: 美国 法国 
年  代: 2016年
分 辨 率: 4K(3840x2160)
电影格式: MKV|REMUX 
画质标准: SDR 
音质编码: DTS-HD Master Audio 
电影声道: 5.1声道 
帧数/FPS: 24.000 帧
电影语言: 英文原版 
资源大小: 15.95 GB
导  演: 约翰·马登
豆瓣评分: 8.8 分
中文字幕: /thread-58898-1-1.html
剧情简介: 在华盛顿呼风唤雨的政治说客斯隆女士,在美国枪击事件接连发生的情况下,不惜牺牲自己的职业生涯,以督促政府实施更严格的联邦法律规范枪支。
枪狂帝国(港) / 攻敌必救(台) / 斯隆夫人/斯隆女士4k Miss.Sloane.2016.2160p.WEB-DL.x265.8bit.SDR.DTS-HD.MA.5.1-4k电影信息
  1. Video
  2. ID : 1
  3. Format : HEVC
  4. Format/Info : High Efficiency Video Coding
  5. Format profile : Main@L5@High
  6. Codec ID : V_MPEGH/ISO/HEVC
  7. Duration : 2 h 12 min
  8. Bit rate : 13.5 Mb/s
  9. Width : 3 840 pixels
  10. Height : 2 160 pixels
  11. Display aspect ratio : 16:9
  12. Frame rate mode : Constant
  13. Frame rate : 24.000 FPS
  14. Color space : YUV
  15. Chroma subsampling : 4:2:0
  16. Bit depth : 8 bits
  17. Bits/(Pixel*Frame) : 0.068
  18. Stream size : 12.5 GiB (78%)
  19. Default : Yes
  20. Forced : No
  21. Color range : Limited
  22. Color primaries : BT.709
  23. Transfer characteristics : BT.709
  24. Matrix coefficients : BT.709

  25. Audio #1
  26. ID : 2
  27. Format : DTS XLL
  28. Format/Info : Digital Theater Systems
  29. Commercial name : DTS-HD Master Audio
  30. Codec ID : A_DTS
  31. Duration : 2 h 12 min
  32. Bit rate mode : Variable
  33. Bit rate : 3 329 kb/s
  34. Channel(s) : 6 channels
  35. Channel layout : C L R Ls Rs LFE
  36. Sampling rate : 48.0 kHz
  37. Frame rate : 93.750 FPS (512 SPF)
  38. Bit depth : 24 bits
  39. Compression mode : Lossless
  40. Delay relative to video : 9 ms
  41. Stream size : 3.07 GiB (19%)
  42. Title : DTS-HD MA 5.1
  43. Language : English
  44. Default : No
  45. Forced : No

  46. Audio #2
  47. ID : 3
  48. Format : AAC LC
  49. Format/Info : Advanced Audio Codec Low Complexity
  50. Codec ID : A_AAC-2
  51. Duration : 2 h 12 min
  52. Bit rate : 445 kb/s
  53. Channel(s) : 6 channels
  54. Channel layout : C L R Ls Rs LFE
  55. Sampling rate : 48.0 kHz
  56. Frame rate : 46.875 FPS (1024 SPF)
  57. Compression mode : Lossy
  58. Stream size : 421 MiB (3%)
  59. Title : AAC 5.1
  60. Language : English
  61. Default : Yes
  62. Forced : No

  63. Text
  64. ID : 4
  65. Format : UTF-8
  66. Codec ID : S_TEXT/UTF8
  67. Codec ID/Info : UTF-8 Plain Text
  68. Duration : 2 h 5 min
  69. Bit rate : 98 b/s
  70. Count of elements : 2476
  71. Stream size : 90.2 KiB (0%)
  72. Language : English
  73. Default : Yes
  74. Forced : No
复制代码

枪狂帝国(港) / 攻敌必救(台) / 斯隆夫人/斯隆女士4k Miss.Sloane.2016.2160p.WEB-DL.x265.8bit.SDR.DTS-HD.MA.5.1-4k电影下载
斯隆女士4k Miss.Sloane.2016.2160p.WEB-DL.x265.8bit.SDR.DTS-HD.MA.5.1【15.95GB】
[Hao4k]斯隆女士4k Miss.Sloane.2016.2160p.WEB-DL.x265.8bit.SDR.DTS-HD.MA.5.1-SWTY.torrent (80.39 KB, 售价: 2 个K币)
回复

使用道具 举报

全部回复29

56789trewq 发表于 2021-6-28 09:12:19

56789trewq 2

2021-6-28 09:12:19

感謝樓主分享好電影,希望以後還能繼續看到更多的資源!
回复 支持 反对

使用道具 举报

stingwon 发表于 2021-6-28 09:12:26

stingwon 3

2021-6-28 09:12:26

评分那么高?下了看看
回复 支持 反对

使用道具 举报

bbgrnnji 发表于 2021-6-28 10:13:55

bbgrnnji 4

2021-6-28 10:13:55

为什么这么高的评分
回复 支持 反对

使用道具 举报

wusongk 发表于 2021-6-28 10:48:51

wusongk 5

2021-6-28 10:48:51

谢谢楼主分享。
回复 支持 反对

使用道具 举报

xdccc8805 发表于 2021-6-28 11:43:22

xdccc8805 6

2021-6-28 11:43:22


谢谢楼主分享。
回复 支持 反对

使用道具 举报

dvd752 发表于 2021-6-28 12:11:36

dvd752 7

2021-6-28 12:11:36

好片,一定要看。字幕也很多。
回复 支持 反对

使用道具 举报

huangzhongning1 发表于 2021-6-28 14:14:55

huangzhongning1 8

2021-6-28 14:14:55

如此高的评分,不下载对不起自己。
回复 支持 反对

使用道具 举报

aaaamonster 发表于 2021-6-28 17:06:37

aaaamonster 9

2021-6-28 17:06:37



谢谢楼主分享 等我有币试试
回复 支持 反对

使用道具 举报

xiaoniao5213 发表于 2021-6-28 17:20:16

xiaoniao5213 10

2021-6-28 17:20:16

等我有币
回复 支持 反对

使用道具 举报

rickyqinwq 发表于 2021-6-28 20:07:10

rickyqinwq 11

2021-6-28 20:07:10

thx for sharing !
回复 支持 反对

使用道具 举报

hhhz 发表于 2021-6-28 20:13:52

hhhz 12

2021-6-28 20:13:52

高分影片!感谢楼主分享!
回复 支持 反对

使用道具 举报

cyy5186 发表于 2021-6-28 21:02:40

cyy5186 13

2021-6-28 21:02:40

感谢楼主分享!!!
回复 支持 反对

使用道具 举报

yuin01 发表于 2021-6-28 21:13:04

yuin01 14

2021-6-28 21:13:04

谢谢楼主分享
回复 支持 反对

使用道具 举报

yu81977228 发表于 2021-6-29 10:02:29

yu81977228 15

2021-6-29 10:02:29

斯隆女士在片中开了一瓶乐加维林16
回复 支持 反对

使用道具 举报

df5222333 发表于 2021-6-29 10:32:46

df5222333 16

2021-6-29 10:32:46

谢谢楼主分享
回复 支持 反对

使用道具 举报

sacdhao 发表于 2021-6-29 11:02:34

sacdhao 17

2021-6-29 11:02:34

评分很高么,下来看看。
回复 支持 反对

使用道具 举报

maxk 发表于 2021-6-29 20:02:30

maxk 18

2021-6-29 20:02:30

初來乍到~想請問大家都怎麼解決字幕問題?
準確地說~下載了個影片但是苦於四處尋不著字幕~
回复 支持 反对

使用道具 举报

   发表回复

您需要登录后才可以回帖 登录 | 立即注册

返回列表 本版积分规则

  • 在线客服

  • 返回顶部