微博 微信

Hao4K影音

电影频道
电影封面:
片  名: Sister of the Bride
电影分类: 爱情片 
国  家: 美国 
年  代: 2019年
分 辨 率: 4K(3840x2160)
电影格式: MKV|REMUX 
画质标准: SDR 
音质编码: 其他AAC 
电影声道: 5.1声道 
帧数/FPS: 23.976 帧
电影语言: 英文原版 
资源大小: 5.96 GB
导  演: 山姆·伊文
豆瓣评分:
中文字幕: -
剧情简介: After only 6 months of dating, Stephanie and Ben get engaged and are delighted to share the news. However, they hit a road bump when Stephanie\'s parents show concern that the couple has moved too fast.
Sister.of.the.Bride.2019.2160p.STAN.WEB-DL.x265.8bit.SDR.AAC5.1-4k电影信息
  1. Video
  2. ID : 1
  3. Format : HEVC
  4. Format/Info : High Efficiency Video Coding
  5. Format profile : Main@L5@Main
  6. Codec ID : V_MPEGH/ISO/HEVC
  7. Duration : 1 h 22 min
  8. Bit rate : 9 908 kb/s
  9. Width : 3 840 pixels
  10. Height : 2 160 pixels
  11. Display aspect ratio : 16:9
  12. Frame rate mode : Constant
  13. Frame rate : 23.976 (23976/1000) FPS
  14. Original frame rate : 23.976 (24000/1001) FPS
  15. Color space : YUV
  16. Chroma subsampling : 4:2:0
  17. Bit depth : 8 bits
  18. Bits/(Pixel*Frame) : 0.050
  19. Stream size : 5.70 GiB (96%)
  20. Default : Yes
  21. Forced : No
  22. Color range : Limited
  23. Color primaries : BT.709
  24. Transfer characteristics : BT.709
  25. Matrix coefficients : BT.709

  26. Audio
  27. ID : 2
  28. Format : AAC LC
  29. Format/Info : Advanced Audio Codec Low Complexity
  30. Codec ID : A_AAC-2
  31. Duration : 1 h 22 min
  32. Bit rate : 445 kb/s
  33. Channel(s) : 6 channels
  34. Channel layout : C L R Ls Rs LFE
  35. Sampling rate : 48.0 kHz
  36. Frame rate : 46.875 FPS (1024 SPF)
  37. Compression mode : Lossy
  38. Stream size : 263 MiB (4%)
  39. Language : English
  40. Default : Yes
  41. Forced : No

  42. Text
  43. ID : 3
  44. Format : UTF-8
  45. Codec ID : S_TEXT/UTF8
  46. Codec ID/Info : UTF-8 Plain Text
  47. Duration : 1 h 21 min
  48. Bit rate : 93 b/s
  49. Count of elements : 1731
  50. Stream size : 56.1 KiB (0%)
  51. Title : CC
  52. Language : English
  53. Default : No
  54. Forced : No
复制代码


Sister.of.the.Bride.2019.2160p.STAN.WEB-DL.x265.8bit.SDR.AAC5.1-4k电影下载

Sister.of.the.Bride.2019.2160p.STAN.WEB-DL.x265.8bit.SDR.AAC5.1【5.96GB】
[Hao4k]Sister.of.the.Bride.2019.2160p.STAN.WEB-DL.x265.8bit.SDR.AAC5.1-SWTYBLZ.torrent (30.45 KB)
回复

使用道具 举报

全部回复7

ywf6168 发表于 2021-6-28 10:13:47 Hao4K手机版

ywf6168 2

2021-6-28 10:13:47

谢谢分享!
回复 支持 反对

使用道具 举报

panbell 发表于 2021-6-28 10:14:41

panbell 3

2021-6-28 10:14:41

谢楼主分享!
回复 支持 反对

使用道具 举报

wusongk 发表于 2021-6-28 10:49:15

wusongk 4

2021-6-28 10:49:15

谢谢楼主分享。
回复 支持 反对

使用道具 举报

xdccc8805 发表于 2021-6-28 11:41:41

xdccc8805 5

2021-6-28 11:41:41

感谢楼主分享!
回复 支持 反对

使用道具 举报

rickyqinwq 发表于 2021-6-28 20:06:42

rickyqinwq 6

2021-6-28 20:06:42

thx for sharing !
回复 支持 反对

使用道具 举报

sacdhao 发表于 2021-6-29 11:02:03

sacdhao 7

2021-6-29 11:02:03


感谢楼主分享45678
回复 支持 反对

使用道具 举报

世爵39 发表于 2021-6-30 08:27:25

世爵39 8

2021-6-30 08:27:25

一看封面就知道是爱情有关喜剧片
回复 支持 反对

使用道具 举报

   发表回复

您需要登录后才可以回帖 登录 | 立即注册

返回列表 本版积分规则

  • 在线客服

  • 返回顶部