微博 微信

Hao4K影音

电影频道
电影封面:
片  名: 北好莱坞4k
电影分类: 剧情 喜剧 
国  家: 美国 
年  代: 2021年
分 辨 率: 4K(3840x2160)
电影格式: MKV|REMUX 
画质标准: 其他 
音质编码: Dolby Digital Audio 
电影声道: 其他 
帧数/FPS: 23.976 帧
电影语言: 英文原版 
资源大小: 8.22 GB
导  演: 米基·艾尔弗雷德
豆瓣评分:
中文字幕: -
剧情简介: The first ever movie about becoming a pro skater.
北好莱坞4k North.Hollywood.2021.2160p WEB.H265-4k电影信息
  1. Video
  2. ID : 1
  3. Format : HEVC
  4. Format/Info : High Efficiency Video Coding
  5. Format profile : Main 10@L5@High
  6. Codec ID : V_MPEGH/ISO/HEVC
  7. Duration : 1 h 33 min
  8. Bit rate : 12.0 Mb/s
  9. Width : 3 832 pixels
  10. Height : 1 432 pixels
  11. Display aspect ratio : 2.676
  12. Frame rate mode : Constant
  13. Frame rate : 23.976 (24000/1001) FPS
  14. Color space : YUV
  15. Chroma subsampling : 4:2:0
  16. Bit depth : 10 bits
  17. Bits/(Pixel*Frame) : 0.091
  18. Stream size : 7.87 GiB (97%)
  19. Default : Yes
  20. Forced : No
  21. Color range : Limited
  22. Color primaries : BT.709
  23. Transfer characteristics : BT.709
  24. Matrix coefficients : BT.709

  25. Audio
  26. ID : 2
  27. Format : AC-3
  28. Format/Info : Audio Coding 3
  29. Commercial name : Dolby Digital
  30. Codec ID : A_AC3
  31. Duration : 1 h 33 min
  32. Bit rate mode : Constant
  33. Bit rate : 384 kb/s
  34. Channel(s) : 6 channels
  35. Channel layout : L R C LFE Ls Rs
  36. Sampling rate : 48.0 kHz
  37. Frame rate : 31.250 FPS (1536 SPF)
  38. Compression mode : Lossy
  39. Stream size : 258 MiB (3%)
  40. Title : English
  41. Language : English
  42. Service kind : Complete Main
  43. Default : Yes
  44. Forced : No

  45. Menu
  46. 00:00:00.000 : en:Scene 1
  47. 00:15:30.000 : en:Scene 2
  48. 00:31:45.000 : en:Scene 3
  49. 00:51:33.000 : en:Scene 4
  50. 01:10:48.000 : en:Scene 5
  51. 01:29:28.000 : en:Scene 6
复制代码

北好莱坞4k North.Hollywood.2021.2160p WEB.H265-4k电影下载

北好莱坞4k North.Hollywood.2021.2160p WEB.H265【8.22GB】
[Hao4k]北好莱坞4k North.Hollywood.2021.2160p.WEB.H265-EMPATHY.torrent (41.86 KB)
回复

使用道具 举报

全部回复10

fenidy 发表于 2021-6-28 09:41:59

fenidy 2

2021-6-28 09:41:59

感谢分享
回复 支持 反对

使用道具 举报

月光麦田 发表于 2021-6-28 09:50:20

月光麦田 3

2021-6-28 09:50:20

谢谢分享

免费评分

参与人数 1违规 +1 收起 理由
花落无声 + 1 违反规则:多个主题回复相同内容(第五章第.

查看全部评分

回复 支持 反对

使用道具 举报

ywf6168 发表于 2021-6-28 10:06:24 Hao4K手机版

ywf6168 4

2021-6-28 10:06:24

好片,下了,谢分享
回复 支持 反对

使用道具 举报

wusongk 发表于 2021-6-28 10:48:23

wusongk 5

2021-6-28 10:48:23

谢谢楼主分享。
回复 支持 反对

使用道具 举报

cdyangjun2019 发表于 2021-6-28 14:58:55

cdyangjun2019 6

2021-6-28 14:58:55

楼主辛苦了,谢谢分享
回复 支持 反对

使用道具 举报

xuchangshu520 发表于 2021-6-28 16:30:19

xuchangshu520 7

2021-6-28 16:30:19

谢谢楼主分享
回复 支持 反对

使用道具 举报

OK的狂想曲 发表于 2021-6-28 17:03:54

OK的狂想曲 8

2021-6-28 17:03:54

感谢分享
回复 支持 反对

使用道具 举报

rickyqinwq 发表于 2021-6-28 20:06:28

rickyqinwq 9

2021-6-28 20:06:28

thx for sharing !
回复 支持 反对

使用道具 举报

crazyxueqiang 发表于 2021-6-29 09:25:20

crazyxueqiang 10

2021-6-29 09:25:20


好片,下了,谢分享
回复 支持 反对

使用道具 举报

月光麦田 发表于 2021-6-30 09:02:50

月光麦田 11

2021-6-30 09:02:50

谢谢分享

免费评分

参与人数 1违规 +1 收起 理由
花落无声 + 1 违反规则:多个主题回复相同内容(第五章第.

查看全部评分

回复 支持 反对

使用道具 举报

   发表回复

您需要登录后才可以回帖 登录 | 立即注册

返回列表 本版积分规则

  • 在线客服

  • 返回顶部