微博 微信

Hao4K影音

电影频道
电影封面:
片  名: 国家宝藏4k
电影分类: 动作 惊悚 悬疑 
国  家: 美国 
年  代: 00年代
分 辨 率: 4K(3840x2160)
电影格式: MKV|REMUX 
画质标准: HDR 
音质编码: DTS-HD Master Audio 
电影声道: 5.1声道 
帧数/FPS: 23.976 帧
电影语言: 英文原版 
资源大小: 19.49 GB
导  演: 乔·德特杜巴
豆瓣评分: 7.7 分
中文字幕: /thread-58900-1-1.html
剧情简介: 盖茨家族是出名的冒险家家族。本(尼古拉斯•凯奇 Nicolas Cage 饰)小时候就获悉了他们家族的一个惊天秘密:美国开国时埋藏国家财富的地点就藏在《独立宣言》中。尽管父亲不想盖茨家族在纠缠于国家宝藏,但本还是与电脑高手雷利(贾斯汀•巴萨 Justin Bartha 饰)一起开始了寻宝行动。
  本的寻宝计划很快陷入了僵局。与此同时,英国富豪伊恩(肖恩•宾 Sean Bean 饰)也盯上了这个宝藏,他派人潜入了美国国家图书找寻《独立宣言》中宝藏的秘密并密谋对付本。图书馆的艾比嘉尔博士(戴安•克鲁格 Diane Kruger 饰)获悉了伊恩的险恶用心后,决心帮助本找到国家宝藏……
惊天夺宝(港) / 国家财宝/国家宝藏4k National.Treasure.2004.2160p.DSNP.WEB-DL.x265.10bit.HDR.DTS-HD.MA.5.1-4k电影信息
  1. Video
  2. ID : 1
  3. Format : HEVC
  4. Format/Info : High Efficiency Video Coding
  5. Format profile : Main 10@L5@High
  6. Codec ID : V_MPEGH/ISO/HEVC
  7. Duration : 2 h 11 min
  8. Bit rate : 16.4 Mb/s
  9. Width : 3 840 pixels
  10. Height : 2 160 pixels
  11. Display aspect ratio : 16:9
  12. Frame rate mode : Constant
  13. Frame rate : 23.976 (24000/1001) FPS
  14. Color space : YUV
  15. Chroma subsampling : 4:2:0
  16. Bit depth : 10 bits
  17. Bits/(Pixel*Frame) : 0.083
  18. Stream size : 15.0 GiB (77%)
  19. Default : Yes
  20. Forced : No
  21. Color range : Limited
  22. Color primaries : BT.2020
  23. Transfer characteristics : PQ
  24. Matrix coefficients : BT.2020 non-constant

  25. Audio #1
  26. ID : 2
  27. Format : DTS XLL
  28. Format/Info : Digital Theater Systems
  29. Commercial name : DTS-HD Master Audio
  30. Codec ID : A_DTS
  31. Duration : 2 h 11 min
  32. Bit rate mode : Variable
  33. Bit rate : 4 077 kb/s
  34. Channel(s) : 6 channels
  35. Channel layout : C L R Ls Rs LFE
  36. Sampling rate : 48.0 kHz
  37. Frame rate : 93.750 FPS (512 SPF)
  38. Bit depth : 24 bits
  39. Compression mode : Lossless
  40. Delay relative to video : 5 ms
  41. Stream size : 3.73 GiB (19%)
  42. Title : DTS-HD MA 5.1
  43. Language : English
  44. Default : Yes
  45. Forced : No

  46. Audio #2
  47. ID : 3
  48. Format : E-AC-3 JOC
  49. Format/Info : Enhanced AC-3 with Joint Object Coding
  50. Commercial name : Dolby Digital Plus with Dolby Atmos
  51. Codec ID : A_EAC3
  52. Duration : 2 h 11 min
  53. Bit rate mode : Constant
  54. Bit rate : 768 kb/s
  55. Channel(s) : 6 channels
  56. Channel layout : L R C LFE Ls Rs
  57. Sampling rate : 48.0 kHz
  58. Frame rate : 31.250 FPS (1536 SPF)
  59. Compression mode : Lossy
  60. Stream size : 720 MiB (4%)
  61. Title : DDP 5.1 Atmos
  62. Language : English
  63. Service kind : Complete Main
  64. Default : No
  65. Forced : No
  66. Complexity index : 16
  67. Number of dynamic objects : 15
  68. Bed channel count : 1 channel
  69. Bed channel configuration : LFE

  70. Text #1
  71. ID : 4
  72. Format : UTF-8
  73. Codec ID : S_TEXT/UTF8
  74. Codec ID/Info : UTF-8 Plain Text
  75. Duration : 2 h 1 min
  76. Bit rate : 60 b/s
  77. Count of elements : 1805
  78. Stream size : 53.8 KiB (0%)
  79. Title : SDH
  80. Language : English
  81. Default : Yes
  82. Forced : No

  83. Text #2
  84. ID : 5
  85. Format : UTF-8
  86. Codec ID : S_TEXT/UTF8
  87. Codec ID/Info : UTF-8 Plain Text
  88. Duration : 2 h 0 min
  89. Bit rate : 53 b/s
  90. Count of elements : 1466
  91. Stream size : 47.2 KiB (0%)
  92. Title : Latin America
  93. Language : Spanish
  94. Default : No
  95. Forced : No

  96. Text #3
  97. ID : 6
  98. Format : UTF-8
  99. Codec ID : S_TEXT/UTF8
  100. Codec ID/Info : UTF-8 Plain Text
  101. Duration : 2 h 0 min
  102. Bit rate : 46 b/s
  103. Count of elements : 1447
  104. Stream size : 40.8 KiB (0%)
  105. Title : Canadian
  106. Language : French
  107. Default : No
  108. Forced : No

  109. Text #4
  110. ID : 7
  111. Format : UTF-8
  112. Codec ID : S_TEXT/UTF8
  113. Codec ID/Info : UTF-8 Plain Text
  114. Duration : 2 h 0 min
  115. Bit rate : 41 b/s
  116. Count of elements : 1090
  117. Stream size : 36.2 KiB (0%)
  118. Language : Dutch
  119. Default : No
  120. Forced : No

  121. Menu
  122. 00:00:00.000 : The Legend of the Treasure
  123. 00:06:36.229 : The Charlotte
  124. 00:22:20.339 : Meeting with Dr. Chase
  125. 00:28:49.269 : Making a Plan
  126. 00:31:15.290 : The Setup
  127. 00:35:44.517 : The Gala
  128. 00:45:52.667 : Getting Found Out
  129. 00:54:27.973 : We Need Those Letters
  130. 01:01:07.706 : Examining the Document
  131. 01:07:02.685 : Philadelphia
  132. 01:16:54.610 : The Ocular Device
  133. 01:24:06.458 : Ian Has the Map
  134. 01:28:21.671 : The Uss Intrepid
  135. 01:34:20.822 : Making a Deal with Ian
  136. 01:38:31.989 : Beneath Parkington Lane
  137. 01:49:42.576 : Ian Leaves Them Behind
  138. 01:53:26.383 : Could It Really Be That Simple?
  139. 01:57:22.452 : Somebody Has to Go to Prison
  140. 02:01:43.379 : End Credits
复制代码

惊天夺宝(港) / 国家财宝/国家宝藏4k National.Treasure.2004.2160p.DSNP.WEB-DL.x265.10bit.HDR.DTS-HD.MA.5.1-4k电影下载
国家宝藏4k National.Treasure.2004.2160p.DSNP.WEB-DL.x265.10bit.HDR.DTS-HD.MA.5.1【19.49GB】
[Hao4k]国家宝藏4k National.Treasure.2004.2160p.DSNP.WEB-DL.x265.10bit.HDR.DTS-HD.torrent (98.13 KB)
回复

使用道具 举报

全部回复63

hdq001300 发表于 2021-6-29 07:32:43

hdq001300 2

2021-6-29 07:32:43

感谢分享!
回复 支持 反对

使用道具 举报

一帝忧伤 发表于 2021-6-29 08:14:32

一帝忧伤 3

2021-6-29 08:14:32

这个4K的电影,文件这么小。
回复 支持 0 反对 1

使用道具 举报

raidian001 发表于 2021-6-29 08:20:33

raidian001 4

2021-6-29 08:20:33

web版本
回复 支持 反对

使用道具 举报

yangweii69 发表于 2021-6-29 08:21:32

yangweii69 5

2021-6-29 08:21:32

谢谢分享
回复 支持 反对

使用道具 举报

maxk 发表于 2021-6-29 08:26:32

maxk 6

2021-6-29 08:26:32


感谢
回复 支持 反对

使用道具 举报

世爵39 发表于 2021-6-29 08:34:38

世爵39 7

2021-6-29 08:34:38

这影片多年前看过,想不到在HAO4K这平台还上传
回复 支持 反对

使用道具 举报

cdyangjun2019 发表于 2021-6-29 08:35:55

cdyangjun2019 8

2021-6-29 08:35:55

经典电影,谢谢楼主分享
回复 支持 反对

使用道具 举报

世爵39 发表于 2021-6-29 08:39:42

世爵39 9

2021-6-29 08:39:42

今次下载再重温下
回复 支持 反对

使用道具 举报

zst666 发表于 2021-6-29 08:45:27

zst666 10

2021-6-29 08:45:27

凯奇的经典片。
回复 支持 反对

使用道具 举报

mo814876560 发表于 2021-6-29 08:52:48

mo814876560 11

2021-6-29 08:52:48

喜欢老电影,谢谢分享,楼主辛苦了!
回复 支持 反对

使用道具 举报

rfq84937893 发表于 2021-6-29 09:11:00

rfq84937893 12

2021-6-29 09:11:00

当年的凯奇,还不是烂片之王
回复 支持 反对

使用道具 举报

Xzysky 发表于 2021-6-29 09:18:51

Xzysky 13

2021-6-29 09:18:51

十分经典的电影,感谢分享。。。
回复 支持 反对

使用道具 举报

xbox07 发表于 2021-6-29 09:24:35

xbox07 14

2021-6-29 09:24:35

也是经典影片
回复 支持 反对

使用道具 举报

帅气哥哥 发表于 2021-6-29 09:32:11

帅气哥哥 15

2021-6-29 09:32:11

感谢分享,最近还刚想看来着
回复 支持 反对

使用道具 举报

panbell 发表于 2021-6-29 10:01:10

panbell 16

2021-6-29 10:01:10

喜欢。谢谢楼主了。
回复 支持 反对

使用道具 举报

huan221 发表于 2021-6-29 10:19:27

huan221 17

2021-6-29 10:19:27

谢谢非常喜欢凯奇
回复 支持 反对

使用道具 举报

tomcatf 发表于 2021-6-29 10:27:12

tomcatf 18

2021-6-29 10:27:12

凯奇版的《夺宝奇兵》,也还算是不错的片子。
回复 支持 反对

使用道具 举报

   发表回复

您需要登录后才可以回帖 登录 | 立即注册

返回列表 本版积分规则

  • 在线客服

  • 返回顶部