微博 微信

Hao4K影音

电影频道
电影封面:
片  名: 盟军夺宝队4k
电影分类: 战争 剧情 历史 传记 
国  家: 美国 
年  代: 2014年
分 辨 率: 4K(3840x2160)
电影格式: MKV|REMUX 
画质标准: SDR 
音质编码: DTS-HD Master Audio 
电影声道: 5.1声道 
帧数/FPS: 23.976 帧
电影语言: 英文原版 
资源大小: 12.79 GB
导  演: 乔治·克鲁尼
豆瓣评分: 5.5 分
中文字幕: /thread-58901-1-1.html
剧情简介: 1944年,德国纳粹战败前夕。为保护人类所共有的艺术瑰宝免遭恶意损毁,罗斯福总统授意成立一支盟军夺宝队,该队伍由弗兰克·斯托克教授(乔治·克鲁尼 George Clooney 饰)领军,网罗了詹姆斯·格兰杰(马特·达蒙 Matt Damon 饰)、理查德·坎贝尔(比尔·默瑞 Bill Murray 饰)、沃尔特·加菲尔德(约翰·古德曼 John Goodman 饰)等散落在各界的艺术领域精英人才。德国人全线溃逃,夺宝队一路追踪,挽救了不少珍贵文物。当他们抵达巴黎时,见到了曾在德国人麾下管理艺术品的法国国家博物馆雇员克莱尔·西蒙(凯特·布兰切特 Cate Blanchett 饰),在她的协助下得以令无数的瑰宝物归原主。这是一场关系着人类遗产的战争,争分夺秒,不容喘息……
  本片根据二战期间发生的真实故事改编。
古迹卫士 / 古文明救兵(港) / 大寻宝家(台) / 遗产护卫队/盟军夺宝队4k The.Monuments.Men.2014.2160p.WEB-DL.x265.10bit.SDR.DTS-HD.MA.5.1-4k
电影信息

  1. Video
  2. ID : 1
  3. Format : HEVC
  4. Format/Info : High Efficiency Video Coding
  5. Format profile : Main 10@L5@High
  6. Codec ID : V_MPEGH/ISO/HEVC
  7. Duration : 1 h 58 min
  8. Bit rate : 12.0 Mb/s
  9. Width : 3 840 pixels
  10. Height : 1 600 pixels
  11. Display aspect ratio : 2.40:1
  12. Frame rate mode : Constant
  13. Frame rate : 23.976 FPS
  14. Color space : YUV
  15. Chroma subsampling : 4:2:0
  16. Bit depth : 10 bits
  17. Bits/(Pixel*Frame) : 0.081
  18. Stream size : 9.91 GiB (77%)
  19. Default : Yes
  20. Forced : No
  21. Color range : Limited
  22. Color primaries : BT.709
  23. Transfer characteristics : BT.709
  24. Matrix coefficients : BT.709

  25. Audio #1
  26. ID : 2
  27. Format : DTS XLL
  28. Format/Info : Digital Theater Systems
  29. Commercial name : DTS-HD Master Audio
  30. Codec ID : A_DTS
  31. Duration : 1 h 58 min
  32. Bit rate mode : Variable
  33. Bit rate : 2 794 kb/s
  34. Channel(s) : 6 channels
  35. Channel layout : C L R Ls Rs LFE
  36. Sampling rate : 48.0 kHz
  37. Frame rate : 93.750 FPS (512 SPF)
  38. Bit depth : 24 bits
  39. Compression mode : Lossless
  40. Delay relative to video : 2 ms
  41. Stream size : 2.31 GiB (18%)
  42. Title : DTS-HD MA 5.1
  43. Language : English
  44. Default : Yes
  45. Forced : No

  46. Audio #2
  47. ID : 3
  48. Format : AC-3
  49. Format/Info : Audio Coding 3
  50. Commercial name : Dolby Digital
  51. Codec ID : A_AC3
  52. Duration : 1 h 58 min
  53. Bit rate mode : Constant
  54. Bit rate : 640 kb/s
  55. Channel(s) : 6 channels
  56. Channel layout : L R C LFE Ls Rs
  57. Sampling rate : 48.0 kHz
  58. Frame rate : 31.250 FPS (1536 SPF)
  59. Compression mode : Lossy
  60. Stream size : 542 MiB (4%)
  61. Title : DD 5.1
  62. Language : English
  63. Service kind : Complete Main
  64. Default : No
  65. Forced : No

  66. Text #1
  67. ID : 4
  68. Format : UTF-8
  69. Codec ID : S_TEXT/UTF8
  70. Codec ID/Info : UTF-8 Plain Text
  71. Duration : 58 min 39 s
  72. Bit rate : 3 b/s
  73. Count of elements : 46
  74. Stream size : 1.32 KiB (0%)
  75. Title : FORCED
  76. Language : English
  77. Default : Yes
  78. Forced : Yes

  79. Text #2
  80. ID : 5
  81. Format : UTF-8
  82. Codec ID : S_TEXT/UTF8
  83. Codec ID/Info : UTF-8 Plain Text
  84. Duration : 1 h 49 min
  85. Bit rate : 48 b/s
  86. Count of elements : 1126
  87. Stream size : 38.7 KiB (0%)
  88. Language : English
  89. Default : No
  90. Forced : No

  91. Text #3
  92. ID : 6
  93. Format : PGS
  94. Muxing mode : zlib
  95. Codec ID : S_HDMV/PGS
  96. Codec ID/Info : Picture based subtitle format used on BDs/HD-DVDs
  97. Duration : 58 min 39 s
  98. Bit rate : 1 802 b/s
  99. Count of elements : 92
  100. Stream size : 774 KiB (0%)
  101. Title : FORCED
  102. Language : English
  103. Default : No
  104. Forced : No

  105. Text #4
  106. ID : 7
  107. Format : PGS
  108. Muxing mode : zlib
  109. Codec ID : S_HDMV/PGS
  110. Codec ID/Info : Picture based subtitle format used on BDs/HD-DVDs
  111. Duration : 1 h 49 min
  112. Bit rate : 28.3 kb/s
  113. Count of elements : 2256
  114. Stream size : 22.1 MiB (0%)
  115. Language : English
  116. Default : No
  117. Forced : No

  118. Text #5
  119. ID : 8
  120. Format : PGS
  121. Muxing mode : zlib
  122. Codec ID : S_HDMV/PGS
  123. Codec ID/Info : Picture based subtitle format used on BDs/HD-DVDs
  124. Duration : 1 h 56 min
  125. Bit rate : 21.7 kb/s
  126. Count of elements : 2813
  127. Stream size : 18.1 MiB (0%)
  128. Title : SDH
  129. Language : English
  130. Default : No
  131. Forced : No

  132. Text #6
  133. ID : 9
  134. Format : PGS
  135. Muxing mode : zlib
  136. Codec ID : S_HDMV/PGS
  137. Codec ID/Info : Picture based subtitle format used on BDs/HD-DVDs
  138. Duration : 1 h 57 min
  139. Bit rate : 23.6 kb/s
  140. Count of elements : 2236
  141. Stream size : 19.8 MiB (0%)
  142. Language : French
  143. Default : No
  144. Forced : No
复制代码

古迹卫士 / 古文明救兵(港) / 大寻宝家(台) / 遗产护卫队/盟军夺宝队4k The.Monuments.Men.2014.2160p.WEB-DL.x265.10bit.SDR.DTS-HD.MA.5.1-4k
电影下载

盟军夺宝队4k The.Monuments.Men.2014.2160p.WEB-DL.x265.10bit.SDR.DTS-HD.MA.5.1【12.79GB】
[Hao4k]盟军夺宝队4k The.Monuments.Men.2014.2160p.WEB-DL.x265.10bit.SDR.DTS-HD.MA.torrent (64.62 KB)
回复

使用道具 举报

全部回复51

kelann 发表于 2021-6-29 06:48:16

kelann 2

2021-6-29 06:48:16

都忘了这部片子了,有时间看看。
回复 支持 反对

使用道具 举报

hdq001300 发表于 2021-6-29 07:33:22

hdq001300 3

2021-6-29 07:33:22


感谢分享!
回复 支持 反对

使用道具 举报

hhhz 发表于 2021-6-29 07:44:04

hhhz 4

2021-6-29 07:44:04

感谢楼主分享!
回复 支持 反对

使用道具 举报

zjzsa 发表于 2021-6-29 08:22:56

zjzsa 5

2021-6-29 08:22:56

感谢楼主分享好资源!!
回复 支持 反对

使用道具 举报

maxk 发表于 2021-6-29 08:26:10

maxk 6

2021-6-29 08:26:10

感谢楼主分享好资源!!
感谢
回复 支持 反对

使用道具 举报

dk30129 发表于 2021-6-29 08:40:02

dk30129 7

2021-6-29 08:40:02


感谢楼主分享好资源!!!
回复 支持 反对

使用道具 举报

bbgrnnji 发表于 2021-6-29 08:50:25

bbgrnnji 8

2021-6-29 08:50:25

以前怎么不知道这个片子
回复 支持 反对

使用道具 举报

hakusinmei 发表于 2021-6-29 08:50:38

hakusinmei 9

2021-6-29 08:50:38

感谢楼主分享
回复 支持 反对

使用道具 举报

highrpmclub 发表于 2021-6-29 09:05:40

highrpmclub 10

2021-6-29 09:05:40

有几位老戏骨撑着,片子还行
回复 支持 反对

使用道具 举报

mo814876560 发表于 2021-6-29 09:06:06

mo814876560 11

2021-6-29 09:06:06

经典老电影,我喜欢。谢谢楼主了。
回复 支持 反对

使用道具 举报

iris6267 发表于 2021-6-29 09:09:12

iris6267 12

2021-6-29 09:09:12

感谢分享
回复 支持 反对

使用道具 举报

又斜风细雨 发表于 2021-6-29 09:23:50

又斜风细雨 13

2021-6-29 09:23:50

喜欢大兵的戏
回复 支持 反对

使用道具 举报

crazyxueqiang 发表于 2021-6-29 09:25:36

crazyxueqiang 14

2021-6-29 09:25:36


好片,下了,谢分享
回复 支持 反对

使用道具 举报

panbell 发表于 2021-6-29 10:00:24

panbell 15

2021-6-29 10:00:24

喜欢。谢谢楼主了。
回复 支持 反对

使用道具 举报

fenggao602 发表于 2021-6-29 10:42:20

fenggao602 16

2021-6-29 10:42:20


感谢楼主分享好资源!!
回复 支持 反对

使用道具 举报

cdyangjun2019 发表于 2021-6-29 10:45:29

cdyangjun2019 17

2021-6-29 10:45:29

下来看看,谢谢楼主分享
回复 支持 反对

使用道具 举报

ywf6168 发表于 2021-6-29 10:49:07

ywf6168 18

2021-6-29 10:49:07

谢谢楼主分享
回复 支持 反对

使用道具 举报

   发表回复

您需要登录后才可以回帖 登录 | 立即注册

返回列表 本版积分规则

  • 在线客服

  • 返回顶部