微博 微信

Hao4K影音

电影频道
电影封面:
片  名: 边缘状态4k
电影分类: 剧情 
国  家: 英国 
年  代: 2020年
分 辨 率: 4K(3840x2160)
电影格式: MKV|REMUX 
画质标准: SDR 
音质编码: Dolby Digital Audio 
电影声道: 5.1声道 
帧数/FPS: 23.976 帧
电影语言: 英文原版 
资源大小: 15.38 GB
导  演: 本·夏罗克
豆瓣评分: 7.5 分
中文字幕: -
剧情简介: 故事是对在苏格兰岛上等待庇护的难民的一次另类观察。 它聚焦于一位背负重担背离祖国的年轻叙利亚音乐家奥马尔。
流亡边界/边缘状态4k Limbo.2020.2160p.WEB-DL.x265.10bit.SDR.DD5.1-4k电影信息
  1. Video
  2. ID : 1
  3. Format : HEVC
  4. Format/Info : High Efficiency Video Coding
  5. Format profile : Main 10@L5@High
  6. Codec ID : V_MPEGH/ISO/HEVC
  7. Duration : 1 h 44 min
  8. Bit rate : 20.6 Mb/s
  9. Width : 3 836 pixels
  10. Height : 2 080 pixels
  11. Display aspect ratio : 1.85:1
  12. Frame rate mode : Constant
  13. Frame rate : 23.976 FPS
  14. Color space : YUV
  15. Chroma subsampling : 4:2:0
  16. Bit depth : 10 bits
  17. Bits/(Pixel*Frame) : 0.108
  18. Stream size : 15.1 GiB (98%)
  19. Language : English
  20. Default : Yes
  21. Forced : No
  22. Color range : Limited
  23. Color primaries : BT.709
  24. Transfer characteristics : BT.709
  25. Matrix coefficients : BT.709

  26. Audio
  27. ID : 2
  28. Format : AC-3
  29. Format/Info : Audio Coding 3
  30. Commercial name : Dolby Digital
  31. Codec ID : A_AC3
  32. Duration : 1 h 44 min
  33. Bit rate mode : Constant
  34. Bit rate : 384 kb/s
  35. Channel(s) : 6 channels
  36. Channel layout : L R C LFE Ls Rs
  37. Sampling rate : 48.0 kHz
  38. Frame rate : 31.250 FPS (1536 SPF)
  39. Compression mode : Lossy
  40. Stream size : 288 MiB (2%)
  41. Language : English
  42. Service kind : Complete Main
  43. Default : Yes
  44. Forced : No

  45. Text #1
  46. ID : 3
  47. Format : UTF-8
  48. Codec ID : S_TEXT/UTF8
  49. Codec ID/Info : UTF-8 Plain Text
  50. Duration : 1 h 27 min
  51. Bit rate : 13 b/s
  52. Count of elements : 295
  53. Stream size : 8.85 KiB (0%)
  54. Title : FORCED
  55. Language : English
  56. Default : Yes
  57. Forced : No

  58. Text #2
  59. ID : 4
  60. Format : UTF-8
  61. Codec ID : S_TEXT/UTF8
  62. Codec ID/Info : UTF-8 Plain Text
  63. Duration : 1 h 33 min
  64. Bit rate : 42 b/s
  65. Count of elements : 1099
  66. Stream size : 29.5 KiB (0%)
  67. Language : English
  68. Default : No
  69. Forced : No
复制代码

流亡边界/边缘状态4k Limbo.2020.2160p.WEB-DL.x265.10bit.SDR.DD5.1-4k电影下载

边缘状态4k Limbo.2020.2160p.WEB-DL.x265.10bit.SDR.DD5.1【15.38GB】
[Hao4k]边缘状态4k Limbo.2020.2160p.WEB-DL.x265.10bit.SDR.DD5.1-NOGRP.torrent (77.51 KB)
回复

使用道具 举报

全部回复6

wusongk 发表于 2021-6-29 16:23:25

wusongk 2

2021-6-29 16:23:25

谢谢楼主分享。
回复 支持 反对

使用道具 举报

总统先生 发表于 2021-6-29 16:28:45

总统先生 3

2021-6-29 16:28:45

谢谢楼主分享。
回复 支持 反对

使用道具 举报

a309477 发表于 2021-6-29 22:25:50

a309477 4

2021-6-29 22:25:50


谢谢楼主分享。
回复 支持 反对

使用道具 举报

cdyangjun2019 发表于 2021-6-30 15:21:10

cdyangjun2019 5

2021-6-30 15:21:10

7.5分,看来不错,谢谢楼主分享
回复 支持 反对

使用道具 举报

tomykwok 发表于 2021-7-4 21:26:39

tomykwok 6

2021-7-4 21:26:39

谢谢楼主分享
回复 支持 反对

使用道具 举报

wwxa 发表于 2021-7-10 22:07:53

wwxa 7

2021-7-10 22:07:53

谢谢分享,下来看看
回复 支持 反对

使用道具 举报

   发表回复

您需要登录后才可以回帖 登录 | 立即注册

返回列表 本版积分规则

  • 在线客服

  • 返回顶部