微博 微信

Hao4K影音

电影频道
电影封面:
片  名: 杀戮开始4k
电影分类: 恐怖 
国  家: 美国 
年  代: 2020年
分 辨 率: 4K(3840x2160)
电影格式: MKV|REMUX 
画质标准: 其他 
音质编码: Dolby Digital Audio 
电影声道: 其他 
帧数/FPS: 23.976 帧
电影语言: 英文原版 
资源大小: 8.62 GB
导  演: John Berardo
豆瓣评分: 4.3 分
中文字幕: -
剧情简介: 在这个前卫的砍杀者中,关于恐怖的残酷社交媒体游戏失控,少年恐怖又回来了。惠顿大学(Whiton University)揭开了一名暗杀案指控后,一名明星运动员被谋杀的夜晚的序幕,引发了一系列社交媒体相关的杀戮事件。当一个蒙面杀手针对整个校园的学生时,三位姐妹姐妹争分夺秒地揭露了学校隐藏的秘密背后的真相-以及一个感叹号的恐怖含义-然后他们成为杀手的下一个受害者
死亡连锁(台) / Dembanger/杀戮开始4k Initiation.2020.2160p.WEB.H265-4k电影信息
  1. Video
  2. ID : 1
  3. Format : HEVC
  4. Format/Info : High Efficiency Video Coding
  5. Format profile : Main 10@L5@High
  6. Codec ID : V_MPEGH/ISO/HEVC
  7. Duration : 1 h 37 min
  8. Bit rate : 11.7 Mb/s
  9. Width : 3 832 pixels
  10. Height : 1 600 pixels
  11. Display aspect ratio : 2.40:1
  12. Frame rate mode : Constant
  13. Frame rate : 23.976 (24000/1001) FPS
  14. Color space : YUV
  15. Chroma subsampling : 4:2:0
  16. Bit depth : 10 bits
  17. Bits/(Pixel*Frame) : 0.080
  18. Stream size : 7.98 GiB (97%)
  19. Default : Yes
  20. Forced : No
  21. Color range : Limited
  22. Color primaries : BT.709
  23. Transfer characteristics : BT.709
  24. Matrix coefficients : BT.709

  25. Audio
  26. ID : 2
  27. Format : AC-3
  28. Format/Info : Audio Coding 3
  29. Commercial name : Dolby Digital
  30. Codec ID : A_AC3
  31. Duration : 1 h 37 min
  32. Bit rate mode : Constant
  33. Bit rate : 384 kb/s
  34. Channel(s) : 6 channels
  35. Channel layout : L R C LFE Ls Rs
  36. Sampling rate : 48.0 kHz
  37. Frame rate : 31.250 FPS (1536 SPF)
  38. Compression mode : Lossy
  39. Stream size : 268 MiB (3%)
  40. Title : English
  41. Language : English
  42. Service kind : Complete Main
  43. Default : Yes
  44. Forced : No

  45. Menu
  46. 00:00:00.000 : en:Scene 1
  47. 00:07:52.000 : en:Scene 2
  48. 00:17:48.000 : en:Scene 3
  49. 00:28:41.000 : en:Scene 4
  50. 00:38:28.000 : en:Scene 5
  51. 00:48:11.000 : en:Scene 6
  52. 00:58:13.000 : en:Scene 7
  53. 01:08:38.000 : en:Scene 8
  54. 01:17:55.000 : en:Scene 9
  55. 01:26:52.000 : en:Scene 10
  56. 01:31:45.000 : en:Scene 11
复制代码


死亡连锁(台) / Dembanger/杀戮开始4k Initiation.2020.2160p.WEB.H265-4k电影下载

杀戮开始4k Initiation.2020.2160p.WEB.H265【8.62GB】
[Hao4k]杀戮开始4k Initiation.2020.2160p.WEB.H265-EMPATHY.torrent (42.34 KB)
回复

使用道具 举报

全部回复7

dragon_walk 发表于 2021-6-30 09:10:09

dragon_walk 2

2021-6-30 09:10:09

4.3分。好低。最近烂片比较多
回复 支持 反对

使用道具 举报

hhhz 发表于 2021-6-30 10:29:13

hhhz 3

2021-6-30 10:29:13

低分烂片,无聊时可看。
回复 支持 反对

使用道具 举报

wusongk 发表于 2021-6-30 12:37:58

wusongk 4

2021-6-30 12:37:58

谢谢楼主分享。

免费评分

参与人数 1违规 +1 收起 理由
花落无声 + 1 违反规则:多个主题回复相同内容(第五章第.

查看全部评分

回复 支持 反对

使用道具 举报

fsyms 发表于 2021-6-30 13:48:01

fsyms 5

2021-6-30 13:48:01

感谢分享,看看
回复 支持 反对

使用道具 举报

bbgrnnji 发表于 2021-6-30 17:57:36

bbgrnnji 6

2021-6-30 17:57:36

规矩还是要有的,6分以下的就不下了
回复 支持 反对

使用道具 举报

roy9998 发表于 2021-6-30 18:49:33

roy9998 7

2021-6-30 18:49:33

什么手机?看着像锤子R2
回复 支持 反对

使用道具 举报

stingwon 发表于 2021-7-1 07:44:07

stingwon 8

2021-7-1 07:44:07

感觉是给修手机的店铺做广告
回复 支持 反对

使用道具 举报

   发表回复

您需要登录后才可以回帖 登录 | 立即注册

返回列表 本版积分规则

  • 在线客服

  • 返回顶部