微博 微信

Hao4K影音

电影频道
电影封面:
片  名: 格列佛游记4k
电影分类: 冒险 奇幻 
国  家: 美国 
年  代: 更早
分 辨 率: 4K(3840x2160)
电影格式: MKV|REMUX 
画质标准: SDR 
音质编码: DTS-HD Master Audio 
电影声道: 2.0声道 
帧数/FPS: 23.976 帧
电影语言: 英文原版 
资源大小: 15.64 GB
导  演: 杰克·谢尔
豆瓣评分:
中文字幕: -
剧情简介:  故事发生在1699年,故事的主人公格列佛医生原本居住在英格兰的瓦平都,尽管连年的战争使得镇上的人们都无力支付医药费,但善良热心的格列佛仍不计回报地帮助着他们,可当格列佛意识到,他挣不到钱就无法让心爱的未婚妻伊丽莎白过上幸福的日子时,他选择了跟随布里查德的船出海。伊丽莎白因为无法阻止他的行为也只好一同登上了货船。
  
  船在行驶途中遭遇了风暴,所有的船员都落入了大海,格列佛醒来时发现自己漂泊到了一个叫利利普特的小人国,正巧利利普特王国与邻国布雷旧正面临着一场征战,格列佛帮助利利普特把布雷旧的战舰全部收缴,避免了一场战争,因而得到了人们的一致爱戴,但贪得无厌的国王却在格列佛因救火而毁坏了皇后的新衣后,将他逐出小人国。
  
  格列佛又漂流到了一个大人国,在那里他遇见了被暴风雨冲散的未婚妻伊丽莎白。大人国的人都很小气,格列佛因为在下棋时赢了国王而被看成了巫师,尽管他治好了王后的病,但还是不能逃脱火刑的处置,幸好有小女孩格兰的帮助,他和伊丽莎白才逃出了大人国。
  
  经过了又一次长时间的漂流,两人终于又回到了家乡英格兰的瓦平都。
大小人国游记/格列佛游记4k The.3.Worlds.of.Gulliver.1960.2160p.WEB-DL.x265.10bit.SDR.DTS-HD.MA.2.0-4k电影信息
  1. Video
  2. ID : 1
  3. Format : HEVC
  4. Format/Info : High Efficiency Video Coding
  5. Format profile : Main 10@L5@High
  6. Codec ID : V_MPEGH/ISO/HEVC
  7. Duration : 1 h 38 min
  8. Bit rate : 20.7 Mb/s
  9. Width : 3 576 pixels
  10. Height : 2 156 pixels
  11. Display aspect ratio : 5:3
  12. Frame rate mode : Constant
  13. Frame rate : 23.976 FPS
  14. Color space : YUV
  15. Chroma subsampling : 4:2:0
  16. Bit depth : 10 bits
  17. Bits/(Pixel*Frame) : 0.112
  18. Stream size : 14.3 GiB (91%)
  19. Default : Yes
  20. Forced : No
  21. Color range : Limited
  22. Color primaries : BT.709
  23. Transfer characteristics : BT.709
  24. Matrix coefficients : BT.709

  25. Audio #1
  26. ID : 2
  27. Format : DTS XLL
  28. Format/Info : Digital Theater Systems
  29. Commercial name : DTS-HD Master Audio
  30. Codec ID : A_DTS
  31. Duration : 1 h 38 min
  32. Bit rate mode : Variable
  33. Bit rate : 1 891 kb/s
  34. Channel(s) : 2 channels
  35. Channel layout : L R
  36. Sampling rate : 48.0 kHz
  37. Frame rate : 93.750 FPS (512 SPF)
  38. Bit depth : 24 bits
  39. Compression mode : Lossless
  40. Delay relative to video : 9 ms
  41. Stream size : 1.30 GiB (8%)
  42. Title : DTS-HD MA 2.0
  43. Language : English
  44. Default : Yes
  45. Forced : No

  46. Audio #2
  47. ID : 3
  48. Format : AAC LC
  49. Format/Info : Advanced Audio Codec Low Complexity
  50. Codec ID : A_AAC-2
  51. Duration : 1 h 38 min
  52. Bit rate : 113 kb/s
  53. Channel(s) : 2 channels
  54. Channel layout : L R
  55. Sampling rate : 48.0 kHz
  56. Frame rate : 46.875 FPS (1024 SPF)
  57. Compression mode : Lossy
  58. Stream size : 79.7 MiB (0%)
  59. Title : AAC 2.0
  60. Language : English
  61. Default : No
  62. Forced : No

  63. Text
  64. ID : 4
  65. Format : UTF-8
  66. Codec ID : S_TEXT/UTF8
  67. Codec ID/Info : UTF-8 Plain Text
  68. Duration : 1 h 35 min
  69. Bit rate : 65 b/s
  70. Count of elements : 1193
  71. Stream size : 46.1 KiB (0%)
  72. Language : English
  73. Default : Yes
  74. Forced : No

  75. Menu
  76. 00:00:00.000 : Chapter 1
  77. 00:04:49.414 : Chapter 2
  78. 00:07:46.466 : Chapter 3
  79. 00:12:23.743 : Chapter 4
  80. 00:15:03.402 : Chapter 5
  81. 00:19:40.388 : Chapter 6
  82. 00:24:51.740 : Chapter 7
  83. 00:29:06.495 : Chapter 8
  84. 00:33:08.028 : Chapter 9
  85. 00:36:31.314 : Chapter 10
  86. 00:42:11.028 : Chapter 11
  87. 00:44:40.428 : Chapter 12
  88. 00:48:40.793 : Chapter 13
  89. 00:53:42.845 : Chapter 14
  90. 00:56:13.704 : Chapter 15
  91. 01:01:10.709 : Chapter 16
  92. 01:05:42.689 : Chapter 17
  93. 01:10:04.200 : Chapter 18
  94. 01:13:54.513 : Chapter 19
  95. 01:18:18.569 : Chapter 20
  96. 01:21:58.497 : Chapter 21
  97. 01:25:46.266 : Chapter 22
  98. 01:30:49.611 : Chapter 23
  99. 01:35:58.461 : Chapter 24
复制代码


大小人国游记/格列佛游记4k The.3.Worlds.of.Gulliver.1960.2160p.WEB-DL.x265.10bit.SDR.DTS-HD.MA.2.0-4k电影下载

格列佛游记4k The.3.Worlds.of.Gulliver.1960.2160p.WEB-DL.x265.10bit.SDR.DTS-HD.MA.2.0【15.64GB】
[Hao4k]格列佛游记4k The.3.Worlds.of.Gulliver.1960.2160p.WEB-DL.x265.10bit.SDR.DT.torrent (78.88 KB)
回复

使用道具 举报

全部回复8

hhhz 发表于 2021-6-30 10:30:04

hhhz 2

2021-6-30 10:30:04

60年的老片,有没有字幕,可以看看。感谢楼主分享!
回复 支持 反对

使用道具 举报

ywf6168 发表于 2021-6-30 10:39:38 Hao4K手机版

ywf6168 3

2021-6-30 10:39:38

很老的片,不知彩色还是黑白片
回复 支持 反对

使用道具 举报

panbell 发表于 2021-6-30 11:22:41

panbell 4

2021-6-30 11:22:41

感谢楼主的分享了。
回复 支持 反对

使用道具 举报

四海游龙 发表于 2021-6-30 18:28:23

四海游龙 5

2021-6-30 18:28:23

感谢楼主的分享了。
回复 支持 反对

使用道具 举报

shengfan007 发表于 2021-6-30 22:28:24

shengfan007 6

2021-6-30 22:28:24

很小的时候就知道这部电影
回复 支持 反对

使用道具 举报

shengfan007 发表于 2021-6-30 22:28:59

shengfan007 7

2021-6-30 22:28:59

几十年后的今天终于看到了
回复 支持 反对

使用道具 举报

vip007 发表于 2021-7-6 16:42:02

vip007 8

2021-7-6 16:42:02

不错的电影,支持下载!
回复 支持 反对

使用道具 举报

RaY康 发表于 2021-7-7 17:27:33

RaY康 9

2021-7-7 17:27:33

非常感谢分享,电影非常的棒
回复 支持 反对

使用道具 举报

   发表回复

您需要登录后才可以回帖 登录 | 立即注册

返回列表 本版积分规则

  • 在线客服

  • 返回顶部