微博 微信

Hao4K影音

电影频道
电影封面:
片  名: 热线舞女4k
电影分类: 惊悚 
国  家: 美国 
年  代: 80年代
分 辨 率: 4K(3840x2160)
电影格式: MKV|REMUX 
画质标准: 其他 
音质编码: 其他AAC 
电影声道: 其他 
帧数/FPS: 23.976 帧
电影语言: 英文原版 
资源大小: 19.24 GB
导  演: William Webb
豆瓣评分: 6.0 分
中文字幕: -
剧情简介:  A rich brother and sister are crazed killers. She lures men into her bed, and he attacks them and murders them. A detective is assigned to find the killers and bring them in.
热线舞女4k Party.Line.1988.2160p.WEB.H265-4k电影信息
  1. Video
  2. ID : 1
  3. Format : HEVC
  4. Format/Info : High Efficiency Video Coding
  5. Format profile : Main 10@L5@High
  6. Codec ID : V_MPEGH/ISO/HEVC
  7. Duration : 1 h 30 min
  8. Bit rate : 20.8 Mb/s
  9. Width : 3 832 pixels
  10. Height : 2 152 pixels
  11. Display aspect ratio : 16:9
  12. Frame rate mode : Constant
  13. Frame rate : 23.976 FPS
  14. Color space : YUV
  15. Chroma subsampling : 4:2:0
  16. Bit depth : 10 bits
  17. Bits/(Pixel*Frame) : 0.105
  18. Stream size : 13.2 GiB (99%)
  19. Default : Yes
  20. Forced : No
  21. Color range : Limited
  22. Color primaries : BT.709
  23. Transfer characteristics : BT.709
  24. Matrix coefficients : BT.709

  25. Audio
  26. ID : 2
  27. Format : AAC LC
  28. Format/Info : Advanced Audio Codec Low Complexity
  29. Codec ID : A_AAC-2
  30. Duration : 1 h 30 min
  31. Bit rate : 115 kb/s
  32. Channel(s) : 2 channels
  33. Channel layout : L R
  34. Sampling rate : 48.0 kHz
  35. Frame rate : 46.875 FPS (1024 SPF)
  36. Compression mode : Lossy
  37. Stream size : 74.4 MiB (1%)
  38. Title : English
  39. Language : English
  40. Default : No
  41. Forced : No

  42. Text #1
  43. ID : 3
  44. Format : UTF-8
  45. Codec ID : S_TEXT/UTF8
  46. Codec ID/Info : UTF-8 Plain Text
  47. Duration : 13 min 42 s
  48. Bit rate : 62 b/s
  49. Count of elements : 240
  50. Stream size : 6.30 KiB (0%)
  51. Title : English SDH
  52. Language : English
  53. Default : No
  54. Forced : No

  55. Text #2
  56. ID : 4
  57. Format : UTF-8
  58. Codec ID : S_TEXT/UTF8
  59. Codec ID/Info : UTF-8 Plain Text
  60. Duration : 13 min 3 s
  61. Bit rate : 58 b/s
  62. Count of elements : 210
  63. Stream size : 5.57 KiB (0%)
  64. Title : English
  65. Language : English
  66. Default : No
  67. Forced : No
复制代码


热线舞女4k Party.Line.1988.2160p.WEB.H265-4k电影下载
热线舞女4k Party.Line.1988.2160p.WEB.H265【19.24GB】
[Hao4k]热线舞女4k Party.Line.1988.2160p.WEB.H265-EMPATHY.torrent (66.89 KB)
回复

使用道具 举报

全部回复26

mo814876560 发表于 2021-6-30 09:21:25

mo814876560 2

2021-6-30 09:21:25

下载试看下,感谢楼主的分享了。
回复 支持 反对

使用道具 举报

hhhz 发表于 2021-6-30 10:31:08

hhhz 3

2021-6-30 10:31:08

封面诱惑
回复 支持 反对

使用道具 举报

bbgrnnji 发表于 2021-6-30 18:00:18

bbgrnnji 4

2021-6-30 18:00:18

谢谢楼主发片
回复 支持 反对

使用道具 举报

stingwon 发表于 2021-7-1 07:43:38

stingwon 5

2021-7-1 07:43:38

我就是来看看封面的
回复 支持 反对

使用道具 举报

世爵39 发表于 2021-7-1 08:14:24

世爵39 6

2021-7-1 08:14:24

封面设计好特别
回复 支持 反对

使用道具 举报

66孔子 发表于 2021-7-1 13:41:28

66孔子 7

2021-7-1 13:41:28

辛苦楼主分享
回复 支持 反对

使用道具 举报

mywqwq 发表于 2021-7-1 17:54:30

mywqwq 8

2021-7-1 17:54:30

找不到字幕
回复 支持 反对

使用道具 举报

wj1243 发表于 2021-7-1 21:04:04

wj1243 9

2021-7-1 21:04:04


辛苦楼主分享
回复 支持 反对

使用道具 举报

wxlxmy 发表于 2021-7-2 08:26:01

wxlxmy 10

2021-7-2 08:26:01

看看好看不
回复 支持 反对

使用道具 举报

cdyangjun2019 发表于 2021-7-2 09:46:59

cdyangjun2019 11

2021-7-2 09:46:59

楼主辛苦了,谢谢分享
回复 支持 反对

使用道具 举报

doragon 发表于 2021-7-2 20:14:29

doragon 12

2021-7-2 20:14:29


楼主辛苦了,谢谢分享
回复 支持 反对

使用道具 举报

lilibowei 发表于 2021-7-2 22:39:16

lilibowei 13

2021-7-2 22:39:16

辛苦了。谢谢发布
回复 支持 反对

使用道具 举报

laozihao 发表于 2021-7-3 11:25:43

laozihao 14

2021-7-3 11:25:43

图片让人浴血沸腾
回复 支持 反对

使用道具 举报

BORA1.6 发表于 2021-7-3 15:40:23

BORA1.6 15

2021-7-3 15:40:23

楼主辛苦了,谢谢分享。
回复 支持 反对

使用道具 举报

cyl6578 发表于 2021-7-3 17:04:34

cyl6578 16

2021-7-3 17:04:34

不知好不好看
回复 支持 反对

使用道具 举报

amote0201 发表于 2021-7-3 19:41:36

amote0201 17

2021-7-3 19:41:36

我也是过来看封面的
回复 支持 反对

使用道具 举报

zts15828136085 发表于 2021-7-4 10:16:28

zts15828136085 18

2021-7-4 10:16:28

感谢分享,已收藏!
回复 支持 反对

使用道具 举报

   发表回复

您需要登录后才可以回帖 登录 | 立即注册

返回列表 本版积分规则

  • 在线客服

  • 返回顶部