微博 微信

Hao4K影音

电影频道
电影封面:
片  名: 我的酒吧4k
电影分类: 喜剧 
国  家: 美国 
年  代: 2021年
分 辨 率: 4K(3840x2160)
电影格式: MKV|REMUX 
画质标准: 其他 
音质编码: Dolby Digital Audio 
电影声道: 其他 
帧数/FPS: 23.976 帧
电影语言: 英文原版 
资源大小: 8.67 GB
导  演: 保罗·雷瑟
豆瓣评分:
中文字幕: -
剧情简介: A real estate developer returns to his old Philly neighborhood and must decide to raze or resurrect the family bar.
Crabs in a Bucket/我的酒吧4k Last.Call.2021.2160p.WEB.H265-4k电影信息
  1. Video
  2. ID : 1
  3. Format : HEVC
  4. Format/Info : High Efficiency Video Coding
  5. Format profile : Main 10@L5@High
  6. Codec ID : V_MPEGH/ISO/HEVC
  7. Duration : 1 h 41 min
  8. Bit rate : 11.9 Mb/s
  9. Width : 3 840 pixels
  10. Height : 2 160 pixels
  11. Display aspect ratio : 16:9
  12. Frame rate mode : Constant
  13. Frame rate : 23.976 FPS
  14. Color space : YUV
  15. Chroma subsampling : 4:2:0
  16. Bit depth : 10 bits
  17. Bits/(Pixel*Frame) : 0.060
  18. Stream size : 8.40 GiB (97%)
  19. Default : Yes
  20. Forced : No
  21. Color range : Limited
  22. Color primaries : BT.709
  23. Transfer characteristics : BT.709
  24. Matrix coefficients : BT.709

  25. Audio
  26. ID : 2
  27. Format : AC-3
  28. Format/Info : Audio Coding 3
  29. Commercial name : Dolby Digital
  30. Codec ID : A_AC3
  31. Duration : 1 h 41 min
  32. Bit rate mode : Constant
  33. Bit rate : 384 kb/s
  34. Channel(s) : 6 channels
  35. Channel layout : L R C LFE Ls Rs
  36. Sampling rate : 48.0 kHz
  37. Frame rate : 31.250 FPS (1536 SPF)
  38. Compression mode : Lossy
  39. Stream size : 278 MiB (3%)
  40. Title : English
  41. Language : English
  42. Service kind : Complete Main
  43. Default : No
  44. Forced : No

  45. Text #1
  46. ID : 3
  47. Format : UTF-8
  48. Codec ID : S_TEXT/UTF8
  49. Codec ID/Info : UTF-8 Plain Text
  50. Duration : 24 min 28 s
  51. Bit rate : 85 b/s
  52. Count of elements : 541
  53. Stream size : 15.3 KiB (0%)
  54. Title : English SDH
  55. Language : English
  56. Default : No
  57. Forced : No

  58. Text #2
  59. ID : 4
  60. Format : UTF-8
  61. Codec ID : S_TEXT/UTF8
  62. Codec ID/Info : UTF-8 Plain Text
  63. Duration : 23 min 44 s
  64. Bit rate : 78 b/s
  65. Count of elements : 496
  66. Stream size : 13.7 KiB (0%)
  67. Title : English
  68. Language : English
  69. Default : No
  70. Forced : No
复制代码

Crabs in a Bucket/我的酒吧4k Last.Call.2021.2160p.WEB.H265-4k电影下载
我的酒吧4k Last.Call.2021.2160p.WEB.H265【8.67GB】
[Hao4k]我的酒吧4k Last.Call.2021.2160p.WEB.H265-EMPATHY.torrent (44.03 KB)
回复

使用道具 举报

全部回复8

hhhz 发表于 2021-6-30 10:33:30

hhhz 2

2021-6-30 10:33:30

新片,感谢楼主分享!
回复 支持 反对

使用道具 举报

新塘彦祖 发表于 2021-7-1 11:46:04

新塘彦祖 3

2021-7-1 11:46:04


新片,感谢楼主分享!
回复 支持 反对

使用道具 举报

世爵39 发表于 2021-7-2 08:22:27

世爵39 4

2021-7-2 08:22:27

这剧情题材不错
回复 支持 反对

使用道具 举报

burningbla 发表于 2021-7-4 19:57:00

burningbla 5

2021-7-4 19:57:00

有看过的没,这个怎么样,看到有韦恩船长
回复 支持 反对

使用道具 举报

以酒会友 发表于 2021-7-6 21:09:28

以酒会友 6

2021-7-6 21:09:28

感谢楼主分享!
回复 支持 反对

使用道具 举报

RaY康 发表于 2021-7-7 17:28:20

RaY康 7

2021-7-7 17:28:20

这个电影怎么样,我看好像还行样的
回复 支持 反对

使用道具 举报

virve01 发表于 2021-7-8 11:31:23

virve01 8

2021-7-8 11:31:23

感谢楼主分享
回复 支持 反对

使用道具 举报

dvgw72 发表于 2021-7-8 12:49:48

dvgw72 9

2021-7-8 12:49:48

jhgk.k
回复 支持 反对

使用道具 举报

   发表回复

您需要登录后才可以回帖 登录 | 立即注册

返回列表 本版积分规则

  • 在线客服

  • 返回顶部