微博 微信

Hao4K影音

电影频道
电影封面:
片  名: 流浪汉与小灵精4k
电影分类: 剧情 西部 
国  家: 美国 
年  代: 70年代
分 辨 率: 4K(3840x2160)
电影格式: MKV|REMUX 
画质标准: HDR SDR 
音质编码: DTS-HD Master Audio 
电影声道: 2.0声道 
帧数/FPS: 23.976 帧
电影语言: 英文原版 
资源大小: 17.93 GB
导  演: 马文·J·乔姆斯基
豆瓣评分:
中文字幕: -
剧情简介: -
流浪汉与小灵精4k Mackintosh.and.T.J.1975.2160p.WEB-DL.x265.10bit.HDR.DTS-HD.MA.2.0-4k电影信息
  1. Video
  2. ID : 1
  3. Format : HEVC
  4. Format/Info : High Efficiency Video Coding
  5. Format profile : Main 10@L5@High
  6. HDR format : SMPTE ST 2086, HDR10 compatible
  7. Codec ID : V_MPEGH/ISO/HEVC
  8. Duration : 1 h 36 min
  9. Bit rate : 24.8 Mb/s
  10. Width : 3 840 pixels
  11. Height : 2 160 pixels
  12. Display aspect ratio : 16:9
  13. Frame rate mode : Constant
  14. Frame rate : 23.976 FPS
  15. Color space : YUV
  16. Chroma subsampling : 4:2:0 (Type 2)
  17. Bit depth : 10 bits
  18. Bits/(Pixel*Frame) : 0.125
  19. Stream size : 16.8 GiB (94%)
  20. Default : Yes
  21. Forced : No
  22. Color range : Limited
  23. Color primaries : BT.2020
  24. Transfer characteristics : PQ
  25. Matrix coefficients : BT.2020 non-constant
  26. Mastering display color primaries : BT.2020
  27. Mastering display luminance : min: 0.0050 cd/m2, max: 1000 cd/m2
  28. Maximum Content Light Level : 10000 cd/m2
  29. Maximum Frame-Average Light Level : 245 cd/m2

  30. Audio #1
  31. ID : 2
  32. Format : DTS XLL
  33. Format/Info : Digital Theater Systems
  34. Commercial name : DTS-HD Master Audio
  35. Codec ID : A_DTS
  36. Duration : 1 h 36 min
  37. Bit rate mode : Variable
  38. Bit rate : 1 558 kb/s
  39. Channel(s) : 2 channels
  40. Channel layout : L R
  41. Sampling rate : 48.0 kHz
  42. Frame rate : 93.750 FPS (512 SPF)
  43. Bit depth : 16 bits
  44. Compression mode : Lossless
  45. Stream size : 1.05 GiB (6%)
  46. Title : DTS-HD MA 2.0
  47. Language : English
  48. Default : Yes
  49. Forced : No

  50. Audio #2
  51. ID : 3
  52. Format : AAC LC
  53. Format/Info : Advanced Audio Codec Low Complexity
  54. Codec ID : A_AAC-2
  55. Duration : 1 h 36 min
  56. Bit rate : 160 kb/s
  57. Channel(s) : 2 channels
  58. Channel layout : L R
  59. Sampling rate : 48.0 kHz
  60. Frame rate : 46.875 FPS (1024 SPF)
  61. Compression mode : Lossy
  62. Stream size : 111 MiB (1%)
  63. Title : AAC 2.0
  64. Language : English
  65. Default : No
  66. Forced : No

  67. Text
  68. ID : 4
  69. Format : UTF-8
  70. Codec ID : S_TEXT/UTF8
  71. Codec ID/Info : UTF-8 Plain Text
  72. Duration : 1 h 34 min
  73. Bit rate : 49 b/s
  74. Count of elements : 1101
  75. Stream size : 34.5 KiB (0%)
  76. Language : English
  77. Default : Yes
  78. Forced : No
复制代码


流浪汉与小灵精4k Mackintosh.and.T.J.1975.2160p.WEB-DL.x265.10bit.HDR.DTS-HD.MA.2.0-4k电影下载

流浪汉与小灵精4k Mackintosh.and.T.J.1975.2160p.WEB-DL.x265.10bit.HDR.DTS-HD.MA.2.0【17.93GB】
[Hao4k]流浪汉与小灵精4k Mackintosh.and.T.J.1975.2160p.WEB-DL.x265.10bit.HDR.DTS-.torrent (90.33 KB)
回复

使用道具 举报

   发表回复

您需要登录后才可以回帖 登录 | 立即注册

返回列表 本版积分规则

  • 在线客服

  • 返回顶部