微博 微信

Hao4K影音

电影频道
电影封面:
片  名: 一级恐惧4k
电影分类: 犯罪 剧情 悬疑 
国  家: 美国 
年  代: 90年代
分 辨 率: 4K(3840x2160)
电影格式: MKV|REMUX 
画质标准: HDR 
音质编码: DTS-HD Master Audio 
电影声道: 5.1声道 
帧数/FPS: 23.976 帧
电影语言: 英文原版 
资源大小: 29.70 GB
导  演: 格里高利·霍布里特
豆瓣评分: 8.5 分
中文字幕: -
剧情简介: 芝加哥发生了一桩震惊全城的恐怖血案。当地一间教堂的主教罗森惨遭杀害,身上被刻上神秘数字,警方逮捕了当时在场身染血迹的犯罪嫌疑人阿伦( Edward Norton 饰)。马丁(理查•基尔 Richard Gere 饰)作为阿伦的辩护律师,和他的前女友检控官珍妮特较上了劲。
  马丁并不在乎事实,他为阿伦辩护的唯一目的就是要赢得官司,让自己一战成名。而珍妮特作为正义的代表当然寸步不让。珍妮特(劳拉•琳妮 Laura Linney 饰)调查得知罗森主教生前曾对阿伦等人进行性侵犯,而阿伦关于自己患有“时间失忆”症的辩解亦显得荒唐,关于他提到的凶案证人一直都未找到。珍妮特认为杀人动机等一切证据俱全。
  马丁借口阿伦患精神病使其成功脱罪,然而,一切皆出人意料。
惊悚 / 致命内情/一级恐惧4k Primal.Fear.1996.2160p.WEB-DL.x265.10bit.HDR.DTS-HD.MA.TrueHD.5.1-4k电影信息
  1. Video
  2. ID : 1
  3. Format : HEVC
  4. Format/Info : High Efficiency Video Coding
  5. Format profile : Main 10@L5@High
  6. HDR format : SMPTE ST 2086, HDR10 compatible
  7. Codec ID : V_MPEGH/ISO/HEVC
  8. Duration : 2 h 10 min
  9. Bit rate : 24.8 Mb/s
  10. Width : 3 840 pixels
  11. Height : 2 160 pixels
  12. Display aspect ratio : 16:9
  13. Frame rate mode : Constant
  14. Frame rate : 23.976 FPS
  15. Color space : YUV
  16. Chroma subsampling : 4:2:0 (Type 2)
  17. Bit depth : 10 bits
  18. Bits/(Pixel*Frame) : 0.125
  19. Stream size : 22.6 GiB (76%)
  20. Default : Yes
  21. Forced : No
  22. Color range : Limited
  23. Color primaries : BT.2020
  24. Transfer characteristics : PQ
  25. Matrix coefficients : BT.2020 non-constant
  26. Mastering display color primaries : Display P3
  27. Mastering display luminance : min: 0.0050 cd/m2, max: 1000 cd/m2
  28. Maximum Content Light Level : 5634 cd/m2
  29. Maximum Frame-Average Light Level : 111 cd/m2

  30. Audio #1
  31. ID : 2
  32. ID in the original source medium : 4352 (0x1100)
  33. Format : MLP FBA
  34. Format/Info : Meridian Lossless Packing FBA
  35. Commercial name : Dolby TrueHD
  36. Codec ID : A_TRUEHD
  37. Duration : 2 h 10 min
  38. Bit rate mode : Variable
  39. Bit rate : 3 182 kb/s
  40. Maximum bit rate : 4 551 kb/s
  41. Channel(s) : 6 channels
  42. Channel layout : L R C LFE Ls Rs
  43. Sampling rate : 48.0 kHz
  44. Frame rate : 1 200.000 FPS (40 SPF)
  45. Bit depth : 24 bits
  46. Compression mode : Lossless
  47. Stream size : 2.90 GiB (10%)
  48. Title : TrueHD 5.1
  49. Language : English
  50. Default : Yes
  51. Forced : No
  52. Original source medium : Blu-ray

  53. Audio #2
  54. ID : 3
  55. Format : DTS XLL
  56. Format/Info : Digital Theater Systems
  57. Commercial name : DTS-HD Master Audio
  58. Codec ID : A_DTS
  59. Duration : 2 h 10 min
  60. Bit rate mode : Variable
  61. Bit rate : 3 521 kb/s
  62. Channel(s) : 6 channels
  63. Channel layout : C L R Ls Rs LFE
  64. Sampling rate : 48.0 kHz
  65. Frame rate : 93.750 FPS (512 SPF)
  66. Bit depth : 24 bits
  67. Compression mode : Lossless
  68. Stream size : 3.21 GiB (11%)
  69. Title : DTS-HD MA 5.1
  70. Language : English
  71. Default : No
  72. Forced : No

  73. Audio #3
  74. ID : 4
  75. ID in the original source medium : 4352 (0x1100)
  76. Format : AC-3
  77. Format/Info : Audio Coding 3
  78. Commercial name : Dolby Digital
  79. Codec ID : A_AC3
  80. Duration : 2 h 10 min
  81. Bit rate mode : Constant
  82. Bit rate : 640 kb/s
  83. Channel(s) : 6 channels
  84. Channel layout : L R C LFE Ls Rs
  85. Sampling rate : 48.0 kHz
  86. Frame rate : 31.250 FPS (1536 SPF)
  87. Compression mode : Lossy
  88. Delay relative to video : 28 ms
  89. Stream size : 597 MiB (2%)
  90. Title : DD 5.1
  91. Language : English
  92. Service kind : Complete Main
  93. Default : No
  94. Forced : No
  95. Original source medium : Blu-ray

  96. Audio #4
  97. ID : 5
  98. Format : AC-3
  99. Format/Info : Audio Coding 3
  100. Commercial name : Dolby Digital
  101. Codec ID : A_AC3
  102. Duration : 2 h 10 min
  103. Bit rate mode : Constant
  104. Bit rate : 384 kb/s
  105. Channel(s) : 6 channels
  106. Channel layout : L R C LFE Ls Rs
  107. Sampling rate : 48.0 kHz
  108. Frame rate : 31.250 FPS (1536 SPF)
  109. Compression mode : Lossy
  110. Stream size : 358 MiB (1%)
  111. Title : DD 5.1
  112. Language : English
  113. Service kind : Complete Main
  114. Default : No
  115. Forced : No

  116. Text
  117. ID : 6
  118. Format : UTF-8
  119. Codec ID : S_TEXT/UTF8
  120. Codec ID/Info : UTF-8 Plain Text
  121. Duration : 2 h 5 min
  122. Bit rate : 78 b/s
  123. Count of elements : 1770
  124. Stream size : 71.9 KiB (0%)
  125. Language : English
  126. Default : Yes
  127. Forced : No

  128. Menu
  129. 00:00:00.000 : Chapter 01
  130. 00:01:38.973 : Chapter 02
  131. 00:08:00.438 : Chapter 03
  132. 00:10:00.057 : Chapter 04
  133. 00:12:48.058 : Chapter 05
  134. 00:17:45.939 : Chapter 06
  135. 00:24:19.166 : Chapter 07
  136. 00:31:55.705 : Chapter 08
  137. 00:34:31.819 : Chapter 09
  138. 00:35:36.134 : Chapter 10
  139. 00:39:43.881 : Chapter 11
  140. 00:47:32.057 : Chapter 12
  141. 00:52:55.714 : Chapter 13
  142. 00:57:29.904 : Chapter 14
  143. 01:00:14.027 : Chapter 15
  144. 01:03:38.606 : Chapter 16
  145. 01:11:51.932 : Chapter 17
  146. 01:19:44.821 : Chapter 18
  147. 01:24:07.459 : Chapter 19
  148. 01:30:25.753 : Chapter 20
  149. 01:35:58.461 : Chapter 21
  150. 01:42:41.155 : Chapter 22
  151. 01:49:05.872 : Chapter 23
  152. 01:55:05.940 : Chapter 24
  153. 01:59:48.556 : Chapter 25
  154. 02:06:41.510 : Chapter 26
复制代码


惊悚 / 致命内情/一级恐惧4k Primal.Fear.1996.2160p.WEB-DL.x265.10bit.HDR.DTS-HD.MA.TrueHD.5.1-4k电影下载

一级恐惧4k Primal.Fear.1996.2160p.WEB-DL.x265.10bit.HDR.DTS-HD.MA.TrueHD.5.1【29.70GB】
[Hao4k]一级恐惧4k Primal.Fear.1996.2160p.WEB-DL.x265.10bit.HDR.DTS-HD.MA.TrueHD..torrent (74.92 KB, 售价: 2 个K币)
回复

使用道具 举报

全部回复33

cdyangjun2019 发表于 2021-6-30 08:25:34

cdyangjun2019 2

2021-6-30 08:25:34

经典电影,谢谢楼主分享
回复 支持 反对

使用道具 举报

dragon_walk 发表于 2021-6-30 09:13:16

dragon_walk 3

2021-6-30 09:13:16

老片,分挺高。下来看看
回复 支持 反对

使用道具 举报

tomcatf 发表于 2021-6-30 10:13:09

tomcatf 4

2021-6-30 10:13:09

诺顿的开山之作,出道极巅峰
回复 支持 反对

使用道具 举报

dqxa 发表于 2021-6-30 10:25:59

dqxa 5

2021-6-30 10:25:59

下载看一看,
回复 支持 反对

使用道具 举报

hhhz 发表于 2021-6-30 10:34:25

hhhz 6

2021-6-30 10:34:25

值得一看,感谢楼主分享!
回复 支持 反对

使用道具 举报

lg0999 发表于 2021-6-30 11:07:09

lg0999 7

2021-6-30 11:07:09

我看过了,确实不负高分。不剧透,剧情非常值得一看。
回复 支持 反对

使用道具 举报

panbell 发表于 2021-6-30 11:21:20

panbell 8

2021-6-30 11:21:20

经典电影,谢谢楼主分享
回复 支持 反对

使用道具 举报

wusongk 发表于 2021-6-30 12:29:12

wusongk 9

2021-6-30 12:29:12

谢谢楼主分享。
回复 支持 反对

使用道具 举报

qiujian1976 发表于 2021-6-30 12:41:39 Hao4K手机版

qiujian1976 10

2021-6-30 12:41:39

犹记得当年看这部电影结局时的震撼 感谢楼主
回复 支持 反对

使用道具 举报

lqy0500 发表于 2021-6-30 13:16:15

lqy0500 11

2021-6-30 13:16:15

谢谢楼主分享
回复 支持 反对

使用道具 举报

sion33 发表于 2021-6-30 13:30:35

sion33 12

2021-6-30 13:30:35

感谢楼主分享!
回复 支持 反对

使用道具 举报

kskchn 发表于 2021-6-30 14:36:37

kskchn 13

2021-6-30 14:36:37

已经看过两遍了,俺就不下载了吧
回复 支持 反对

使用道具 举报

bbgrnnji 发表于 2021-6-30 17:59:39

bbgrnnji 14

2021-6-30 17:59:39

这个绝对是经典
回复 支持 反对

使用道具 举报

以酒会友 发表于 2021-6-30 19:21:49

以酒会友 15

2021-6-30 19:21:49

这个绝对是经典!
回复 支持 反对

使用道具 举报

aftok123 发表于 2021-6-30 21:42:32

aftok123 16

2021-6-30 21:42:32

都说是经典 那下来看看
回复 支持 反对

使用道具 举报

Mr_Se7en 发表于 2021-7-1 00:46:41

Mr_Se7en 17

2021-7-1 00:46:41

高分片,90年代蛮多高分片的
回复 支持 反对

使用道具 举报

stingwon 发表于 2021-7-1 07:43:02

stingwon 18

2021-7-1 07:43:02

感谢分享经典!
回复 支持 反对

使用道具 举报

   发表回复

您需要登录后才可以回帖 登录 | 立即注册

返回列表 本版积分规则

  • 在线客服

  • 返回顶部