微博 微信

Hao4K影音

电影频道
电影封面:
片  名: 美国骗局4k
电影分类: 犯罪 剧情 
国  家: 美国 
年  代: 2013年
分 辨 率: 4K(3840x2160)
电影格式: MKV|REMUX 
画质标准: SDR 
音质编码: DTS-HD Master Audio 
电影声道: 5.1声道 
帧数/FPS: 23.976 帧
电影语言: 英文原版 
资源大小: 22.35 GB
导  演: 大卫·O·拉塞尔
豆瓣评分: 6.7 分
中文字幕: /thread-58984-1-1.html
剧情简介:  一次偶然中,埃文(克里斯蒂安·贝尔 Christian Bale 饰)遇见了性感美艳的脱衣舞女西德尼(艾米·亚当斯 Amy Adams 饰),趣味相投的两人一见钟情,很快就打得火热。没想到,埃文是一个职业骗子,在他的鼓动和“爱情的力量”影响之下,西德尼毅然入伙,两人联手合作,将“事业”经营的有声有色。
  然而,常在河边走哪有不湿鞋,警方早已经盯上了行事作风颇为高调的埃文和西德尼,终于,在一次精密筹划的行动中将两人捉拿归案。经不住FBI探员里奇(布莱德利·库珀 Bradley Cooper 饰)的游说和诱惑,埃文和西德尼决定与其合作,“戴罪立功”。尽管拾起了“老本行”,但这次一次,埃文和西德尼显然站在了正义的那一方,因为他们的对手是那些贪赃枉法的腐败官员。
骗海豪情(港) / 瞒天大布局(台) / 美国式骗局 / 人人都是骗子 / American Bullshit/美国骗局4k American.Hustle.2013.2160p.WEB-DL.x265.10bit.SDR.DTS-HD.MA.5.1-4k
电影信息

  1. Video
  2. ID : 1
  3. Format : HEVC
  4. Format/Info : High Efficiency Video Coding
  5. Format profile : Main 10@L5@High
  6. Codec ID : V_MPEGH/ISO/HEVC
  7. Duration : 2 h 18 min
  8. Bit rate : 20.7 Mb/s
  9. Width : 3 840 pixels
  10. Height : 1 600 pixels
  11. Display aspect ratio : 2.40:1
  12. Frame rate mode : Constant
  13. Frame rate : 23.976 FPS
  14. Color space : YUV
  15. Chroma subsampling : 4:2:0
  16. Bit depth : 10 bits
  17. Bits/(Pixel*Frame) : 0.140
  18. Stream size : 19.9 GiB (89%)
  19. Default : Yes
  20. Forced : No
  21. Color range : Limited
  22. Color primaries : BT.709
  23. Transfer characteristics : BT.709
  24. Matrix coefficients : BT.709

  25. Audio #1
  26. ID : 2
  27. Format : DTS XLL
  28. Format/Info : Digital Theater Systems
  29. Commercial name : DTS-HD Master Audio
  30. Codec ID : A_DTS
  31. Duration : 2 h 17 min
  32. Bit rate mode : Variable
  33. Bit rate : 1 786 kb/s
  34. Channel(s) : 6 channels
  35. Channel layout : C L R Ls Rs LFE
  36. Sampling rate : 48.0 kHz
  37. Frame rate : 93.750 FPS (512 SPF)
  38. Bit depth : 16 bits
  39. Compression mode : Lossless
  40. Delay relative to video : 917 ms
  41. Stream size : 1.72 GiB (8%)
  42. Title : DTS-HD MA 5.1
  43. Language : English
  44. Default : Yes
  45. Forced : No

  46. Audio #2
  47. ID : 3
  48. Format : AC-3
  49. Format/Info : Audio Coding 3
  50. Commercial name : Dolby Digital
  51. Codec ID : A_AC3
  52. Duration : 2 h 17 min
  53. Bit rate mode : Constant
  54. Bit rate : 640 kb/s
  55. Channel(s) : 6 channels
  56. Channel layout : L R C LFE Ls Rs
  57. Sampling rate : 48.0 kHz
  58. Frame rate : 31.250 FPS (1536 SPF)
  59. Compression mode : Lossy
  60. Stream size : 631 MiB (3%)
  61. Title : DD 5.1
  62. Language : English
  63. Service kind : Complete Main
  64. Default : No
  65. Forced : No

  66. Text #1
  67. ID : 4
  68. Format : UTF-8
  69. Codec ID : S_TEXT/UTF8
  70. Codec ID/Info : UTF-8 Plain Text
  71. Duration : 1 min 9 s
  72. Bit rate : 33 b/s
  73. Count of elements : 12
  74. Stream size : 287 Bytes (0%)
  75. Title : FORCED
  76. Language : English
  77. Default : Yes
  78. Forced : Yes

  79. Text #2
  80. ID : 5
  81. Format : UTF-8
  82. Codec ID : S_TEXT/UTF8
  83. Codec ID/Info : UTF-8 Plain Text
  84. Duration : 2 h 10 min
  85. Bit rate : 104 b/s
  86. Count of elements : 2744
  87. Stream size : 99.8 KiB (0%)
  88. Language : English
  89. Default : No
  90. Forced : No

  91. Text #3
  92. ID : 6
  93. Format : PGS
  94. Muxing mode : zlib
  95. Codec ID : S_HDMV/PGS
  96. Codec ID/Info : Picture based subtitle format used on BDs/HD-DVDs
  97. Duration : 1 min 9 s
  98. Bit rate : 24.1 kb/s
  99. Count of elements : 24
  100. Stream size : 206 KiB (0%)
  101. Title : Forced (BD)
  102. Language : English
  103. Default : No
  104. Forced : No

  105. Text #4
  106. ID : 7
  107. Format : PGS
  108. Muxing mode : zlib
  109. Codec ID : S_HDMV/PGS
  110. Codec ID/Info : Picture based subtitle format used on BDs/HD-DVDs
  111. Duration : 2 h 10 min
  112. Bit rate : 64.7 kb/s
  113. Count of elements : 5494
  114. Stream size : 60.4 MiB (0%)
  115. Language : English
  116. Default : No
  117. Forced : No

  118. Text #5
  119. ID : 8
  120. Format : PGS
  121. Muxing mode : zlib
  122. Codec ID : S_HDMV/PGS
  123. Codec ID/Info : Picture based subtitle format used on BDs/HD-DVDs
  124. Duration : 2 h 16 min
  125. Bit rate : 58.1 kb/s
  126. Count of elements : 6165
  127. Stream size : 56.9 MiB (0%)
  128. Title : SDH
  129. Language : English
  130. Default : No
  131. Forced : No

  132. Text #6
  133. ID : 9
  134. Format : PGS
  135. Muxing mode : zlib
  136. Codec ID : S_HDMV/PGS
  137. Codec ID/Info : Picture based subtitle format used on BDs/HD-DVDs
  138. Duration : 2 h 11 min
  139. Bit rate : 35.2 kb/s
  140. Count of elements : 2371
  141. Stream size : 33.2 MiB (0%)
  142. Language : Norwegian
  143. Default : No
  144. Forced : No

  145. Text #7
  146. ID : 10
  147. Format : PGS
  148. Muxing mode : zlib
  149. Codec ID : S_HDMV/PGS
  150. Codec ID/Info : Picture based subtitle format used on BDs/HD-DVDs
  151. Duration : 2 h 10 min
  152. Bit rate : 36.5 kb/s
  153. Count of elements : 2914
  154. Stream size : 34.2 MiB (0%)
  155. Language : Swedish
  156. Default : No
  157. Forced : No

  158. Text #8
  159. ID : 11
  160. Format : PGS
  161. Muxing mode : zlib
  162. Codec ID : S_HDMV/PGS
  163. Codec ID/Info : Picture based subtitle format used on BDs/HD-DVDs
  164. Duration : 2 h 11 min
  165. Bit rate : 32.8 kb/s
  166. Count of elements : 2954
  167. Stream size : 30.7 MiB (0%)
  168. Language : Finnish
  169. Default : No
  170. Forced : No

  171. Text #9
  172. ID : 12
  173. Format : PGS
  174. Muxing mode : zlib
  175. Codec ID : S_HDMV/PGS
  176. Codec ID/Info : Picture based subtitle format used on BDs/HD-DVDs
  177. Duration : 2 h 11 min
  178. Bit rate : 36.3 kb/s
  179. Count of elements : 2924
  180. Stream size : 34.2 MiB (0%)
  181. Language : Danish
  182. Default : No
  183. Forced : No

  184. Menu
  185. 00:00:00.000 : Chapter 1
  186. 00:07:29.741 : Chapter 2
  187. 00:14:09.432 : Chapter 3
  188. 00:24:11.533 : Chapter 4
  189. 00:31:29.513 : Chapter 5
  190. 00:44:06.769 : Chapter 6
  191. 00:52:06.999 : Chapter 7
  192. 01:00:17.197 : Chapter 8
  193. 01:06:16.848 : Chapter 9
  194. 01:16:52.775 : Chapter 10
  195. 01:22:25.524 : Chapter 11
  196. 01:27:56.563 : Chapter 12
  197. 01:36:43.798 : Chapter 13
  198. 01:44:25.843 : Chapter 14
  199. 01:54:23.732 : Chapter 15
  200. 02:11:31.967 : Chapter 16
复制代码

骗海豪情(港) / 瞒天大布局(台) / 美国式骗局 / 人人都是骗子 / American Bullshit/美国骗局4k American.Hustle.2013.2160p.WEB-DL.x265.10bit.SDR.DTS-HD.MA.5.1-4k电影下载

美国骗局4k American.Hustle.2013.2160p.WEB-DL.x265.10bit.SDR.DTS-HD.MA.5.1【22.35GB】
[Hao4k]美国骗局4k American.Hustle.2013.2160p.WEB-DL.x265.10bit.SDR.DTS-HD.MA.5.1.torrent (56.55 KB)
回复

使用道具 举报

全部回复6

yangly 发表于 2021-6-30 11:03:55

yangly 2

2021-6-30 11:03:55

值得下载收藏
回复 支持 反对

使用道具 举报

qiujian1976 发表于 2021-6-30 12:40:58 Hao4K手机版

qiujian1976 3

2021-6-30 12:40:58

喜欢贝尔的演技 谢谢楼主
回复 支持 反对

使用道具 举报

农夫舅舅 发表于 2021-6-30 20:51:22

农夫舅舅 4

2021-6-30 20:51:22

喜欢看这种电影
回复 支持 反对

使用道具 举报

FASSY 发表于 2021-7-3 18:12:08

FASSY 5

2021-7-3 18:12:08

电影一般,4不4K无所谓。
回复 支持 反对

使用道具 举报

sacdhao 发表于 2021-7-5 00:16:52

sacdhao 6

2021-7-5 00:16:52

名字和现实真的接近。。。。
回复 支持 反对

使用道具 举报

kevin2kc 发表于 2021-7-20 11:26:10

kevin2kc 7

2021-7-20 11:26:10

thanks...............................
回复 支持 反对

使用道具 举报

   发表回复

您需要登录后才可以回帖 登录 | 立即注册

返回列表 本版积分规则

  • 在线客服

  • 返回顶部