微博 微信

Hao4K影音

电影频道
电影封面:
片  名: 布吉4k
电影分类: 剧情 
国  家: 美国 
年  代: 2021年
分 辨 率: 4K(3840x2160)
电影格式: MKV|REMUX 
画质标准: HDR SDR 
音质编码: DTS-HD Master Audio 
电影声道: 5.1声道 
帧数/FPS: 23.976 帧
电影语言: 英文原版 
资源大小: 11.37 GB
导  演: 黄颐铭
豆瓣评分: 5.0 分
中文字幕: -
剧情简介: 一心想要进入NBA打篮球的少年成长故事。在父母莫大的压力下,进入有全额奖学金的菁英大学是唯一的出路,而他则必须在新女友、新学校、球场上的竞争对手以及喘不过气的期望中找到自己的出路。
布吉闯篮关(台) / 不羁/布吉4k Boogie.2021.2160p.WEB-DL.x265.10bit.HDR.DTS-HD.MA.5.1-4k电影信息
  1. Video
  2. ID : 1
  3. Format : HEVC
  4. Format/Info : High Efficiency Video Coding
  5. Format profile : Main 10@L5@High
  6. HDR format : SMPTE ST 2086, HDR10 compatible
  7. Codec ID : V_MPEGH/ISO/HEVC
  8. Duration : 1 h 30 min
  9. Bit rate : 14.2 Mb/s
  10. Width : 3 836 pixels
  11. Height : 1 600 pixels
  12. Display aspect ratio : 2.40:1
  13. Original display aspect ratio : 2.40:1
  14. Frame rate mode : Constant
  15. Frame rate : 23.976 FPS
  16. Color space : YUV
  17. Chroma subsampling : 4:2:0 (Type 2)
  18. Bit depth : 10 bits
  19. Bits/(Pixel*Frame) : 0.096
  20. Stream size : 8.93 GiB (79%)
  21. Default : Yes
  22. Forced : No
  23. Color range : Limited
  24. Color primaries : BT.2020
  25. Transfer characteristics : PQ
  26. Matrix coefficients : BT.2020 non-constant
  27. Mastering display color primaries : Display P3
  28. Mastering display luminance : min: 0.0050 cd/m2, max: 1000 cd/m2
  29. Maximum Content Light Level : 1000 cd/m2
  30. Maximum Frame-Average Light Level : 191 cd/m2

  31. Audio #1
  32. ID : 2
  33. ID in the original source medium : 4352 (0x1100)
  34. Format : DTS XLL
  35. Format/Info : Digital Theater Systems
  36. Commercial name : DTS-HD Master Audio
  37. Codec ID : A_DTS
  38. Duration : 1 h 29 min
  39. Bit rate mode : Variable
  40. Bit rate : 3 496 kb/s
  41. Channel(s) : 6 channels
  42. Channel layout : C L R Ls Rs LFE
  43. Sampling rate : 48.0 kHz
  44. Frame rate : 93.750 FPS (512 SPF)
  45. Bit depth : 24 bits
  46. Compression mode : Lossless
  47. Delay relative to video : 24 s 400 ms
  48. Stream size : 2.19 GiB (19%)
  49. Title : DTS-HD MA 5.1
  50. Language : English
  51. Default : Yes
  52. Forced : No
  53. Original source medium : Blu-ray

  54. Audio #2
  55. ID : 3
  56. Format : AC-3
  57. Format/Info : Audio Coding 3
  58. Commercial name : Dolby Digital
  59. Codec ID : A_AC3
  60. Duration : 1 h 30 min
  61. Bit rate mode : Constant
  62. Bit rate : 384 kb/s
  63. Channel(s) : 6 channels
  64. Channel layout : L R C LFE Ls Rs
  65. Sampling rate : 48.0 kHz
  66. Frame rate : 31.250 FPS (1536 SPF)
  67. Compression mode : Lossy
  68. Stream size : 248 MiB (2%)
  69. Title : English
  70. Language : English
  71. Service kind : Complete Main
  72. Default : No
  73. Forced : No

  74. Text
  75. ID : 4
  76. Format : UTF-8
  77. Codec ID : S_TEXT/UTF8
  78. Codec ID/Info : UTF-8 Plain Text
  79. Duration : 1 h 27 min
  80. Bit rate : 75 b/s
  81. Count of elements : 1529
  82. Stream size : 48.6 KiB (0%)
  83. Language : English
  84. Default : Yes
  85. Forced : No

  86. Menu
  87. 00:00:00.000 : Chapter 01
  88. 00:04:53.293 : Chapter 02
  89. 00:10:14.864 : Chapter 03
  90. 00:12:06.392 : Chapter 04
  91. 00:16:47.673 : Chapter 05
  92. 00:22:59.920 : Chapter 06
  93. 00:25:49.256 : Chapter 07
  94. 00:30:12.769 : Chapter 08
  95. 00:35:17.573 : Chapter 09
  96. 00:40:00.022 : Chapter 10
  97. 00:44:52.106 : Chapter 11
  98. 00:49:18.497 : Chapter 12
  99. 00:55:10.598 : Chapter 13
  100. 00:59:42.495 : Chapter 14
  101. 01:05:55.034 : Chapter 15
  102. 01:09:54.273 : Chapter 16
  103. 01:11:27.157 : Chapter 17
  104. 01:15:11.924 : Chapter 18
  105. 01:20:38.083 : Chapter 19
  106. 01:25:39.217 : Chapter 20
复制代码

布吉闯篮关(台) / 不羁/布吉4k Boogie.2021.2160p.WEB-DL.x265.10bit.HDR.DTS-HD.MA.5.1-4k电影下载

布吉4k Boogie.2021.2160p.WEB-DL.x265.10bit.HDR.DTS-HD.MA.5.1【11.37GB】
[Hao4k]布吉4k Boogie.2021.2160p.WEB-DL.x265.10bit.HDR.DTS-HD.MA.5.1-SWTYBLZ.torrent (57.47 KB)
回复

使用道具 举报

全部回复1

seanwill 发表于 2021-7-5 20:47:49

seanwill 2

2021-7-5 20:47:49

谢谢楼主分享
回复 支持 反对

使用道具 举报

   发表回复

您需要登录后才可以回帖 登录 | 立即注册

返回列表 本版积分规则

  • 在线客服

  • 返回顶部