微博 微信

Hao4K影音

电影频道
电影封面:
片  名: 嗜血本性4k
电影分类: 恐怖 
国  家: 加拿大 
年  代: 2020年
分 辨 率: 4K(3840x2160)
电影格式: MKV|REMUX 
画质标准: 其他 
音质编码: Dolby Digital Audio 
电影声道: 其他 
帧数/FPS: 23.976 帧
电影语言: 英文原版 
资源大小: 7.73 GB
导  演: Amelia Moses
豆瓣评分: 4.5 分
中文字幕: -
剧情简介: Grey is an indie singer who is having visions that she is a wolf. When she gets an invitation to work with notorious music producer Vaughn Daniels at his remote studio in the woods she begins to find out who she really is.
嗜血本性4k Bloodthirsty.2020.2160p.WEB.H265-4k电影信息
  1. Video
  2. ID : 1
  3. Format : HEVC
  4. Format/Info : High Efficiency Video Coding
  5. Format profile : Main 10@L5@High
  6. Codec ID : V_MPEGH/ISO/HEVC
  7. Duration : 1 h 24 min
  8. Bit rate : 12.1 Mb/s
  9. Width : 3 832 pixels
  10. Height : 1 602 pixels
  11. Display aspect ratio : 2.40:1
  12. Frame rate mode : Constant
  13. Frame rate : 23.976 FPS
  14. Color space : YUV
  15. Chroma subsampling : 4:2:0
  16. Bit depth : 10 bits
  17. Bits/(Pixel*Frame) : 0.082
  18. Stream size : 7.14 GiB (97%)
  19. Default : Yes
  20. Forced : No
  21. Color range : Limited
  22. Color primaries : BT.709
  23. Transfer characteristics : BT.709
  24. Matrix coefficients : BT.709

  25. Audio
  26. ID : 2
  27. Format : AC-3
  28. Format/Info : Audio Coding 3
  29. Commercial name : Dolby Digital
  30. Codec ID : A_AC3
  31. Duration : 1 h 24 min
  32. Bit rate mode : Constant
  33. Bit rate : 384 kb/s
  34. Channel(s) : 6 channels
  35. Channel layout : L R C LFE Ls Rs
  36. Sampling rate : 48.0 kHz
  37. Frame rate : 31.250 FPS (1536 SPF)
  38. Compression mode : Lossy
  39. Stream size : 232 MiB (3%)
  40. Title : English
  41. Language : English
  42. Service kind : Complete Main
  43. Default : No
  44. Forced : No

  45. Text #1
  46. ID : 3
  47. Format : UTF-8
  48. Codec ID : S_TEXT/UTF8
  49. Codec ID/Info : UTF-8 Plain Text
  50. Duration : 22 min 29 s
  51. Bit rate : 54 b/s
  52. Count of elements : 306
  53. Stream size : 9.03 KiB (0%)
  54. Title : English SDH
  55. Language : English
  56. Default : No
  57. Forced : No

  58. Text #2
  59. ID : 4
  60. Format : UTF-8
  61. Codec ID : S_TEXT/UTF8
  62. Codec ID/Info : UTF-8 Plain Text
  63. Duration : 18 min 59 s
  64. Bit rate : 49 b/s
  65. Count of elements : 237
  66. Stream size : 6.88 KiB (0%)
  67. Title : English
  68. Language : English
  69. Default : No
  70. Forced : No
复制代码

嗜血本性4k Bloodthirsty.2020.2160p.WEB.H265-4k电影下载

嗜血本性4k Bloodthirsty.2020.2160p.WEB.H265【7.73GB】
[Hao4k]嗜血本性4k Bloodthirsty.2020.2160p.WEB.H265-EMPATHY.torrent (37.45 KB)
回复

使用道具 举报

全部回复21

鱼的眼泪 发表于 2021-6-30 13:17:09 Hao4K手机版

鱼的眼泪 2

2021-6-30 13:17:09

不知道好不好看?有没哦看过的?
回复 支持 反对

使用道具 举报

缺一天 发表于 2021-6-30 13:18:13

缺一天 3

2021-6-30 13:18:13

感谢分享
回复 支持 反对

使用道具 举报

liyun80000 发表于 2021-6-30 14:33:50

liyun80000 4

2021-6-30 14:33:50

谢谢楼主分享
回复 支持 反对

使用道具 举报

bbgrnnji 发表于 2021-6-30 17:56:01

bbgrnnji 5

2021-6-30 17:56:01

是不是看见血的原因,眼睛都是亮的
回复 支持 反对

使用道具 举报

yuuuu1942 发表于 2021-6-30 22:37:28

yuuuu1942 6

2021-6-30 22:37:28

谢谢楼主分享,
回复 支持 反对

使用道具 举报

Mathk 发表于 2021-6-30 23:32:24

Mathk 7

2021-6-30 23:32:24

Thanks  A  Lots  ...........  !!!
回复 支持 反对

使用道具 举报

Mathk 发表于 2021-6-30 23:32:54

Mathk 8

2021-6-30 23:32:54

Thanks  A  Lots  ...........  !!!
回复 支持 反对

使用道具 举报

dk30129 发表于 2021-7-1 09:02:42

dk30129 9

2021-7-1 09:02:42

谢谢分享,楼主辛苦了!!!
回复 支持 反对

使用道具 举报

luogeng 发表于 2021-7-1 21:40:00

luogeng 10

2021-7-1 21:40:00


谢谢分享,楼主辛苦了!!!
回复 支持 反对

使用道具 举报

1181842855 发表于 2021-7-1 22:08:47

1181842855 11

2021-7-1 22:08:47

没字幕
回复 支持 反对

使用道具 举报

站在你背后 发表于 2021-7-2 08:13:36

站在你背后 12

2021-7-2 08:13:36

notorious music producer
回复 支持 反对

使用道具 举报

virve01 发表于 2021-7-2 15:04:23

virve01 13

2021-7-2 15:04:23

感谢楼主分享
回复 支持 反对

使用道具 举报

liubaijun 发表于 2021-7-2 15:07:13

liubaijun 14

2021-7-2 15:07:13

感谢分享更多的资源
回复 支持 反对

使用道具 举报

zhy1114 发表于 2021-7-3 20:10:44

zhy1114 15

2021-7-3 20:10:44

太好了,谢谢分享
回复 支持 反对

使用道具 举报

nihan2834 发表于 2021-7-4 23:07:05

nihan2834 16

2021-7-4 23:07:05

应该很好看 谢谢了 楼主~!!!!!!!!!!!!!
回复 支持 反对

使用道具 举报

世爵39 发表于 2021-7-5 08:27:34

世爵39 17

2021-7-5 08:27:34

封面好恐怖
回复 支持 反对

使用道具 举报

世爵39 发表于 2021-7-5 08:33:33

世爵39 18

2021-7-5 08:33:33

一大早下载都没有资源
回复 支持 反对

使用道具 举报

   发表回复

您需要登录后才可以回帖 登录 | 立即注册

返回列表 本版积分规则

  • 在线客服

  • 返回顶部