微博 微信

Hao4K影音

电影频道
电影封面:
片  名: 唐人街4k
电影分类: 犯罪 惊悚 剧情 悬疑 
国  家: 美国 
年  代: 70年代
分 辨 率: 4K(3840x2160)
电影格式: MKV|REMUX 
画质标准: HDR 10+ 
音质编码: Dolby Digital Plus Audio 
电影声道: 5.1声道 
帧数/FPS: 23.976 帧
电影语言: 英文原版 
资源大小: 20.84 GB
导  演: 罗曼·波兰斯基
豆瓣评分: 8.4 分
中文字幕: -
剧情简介: 1937年的洛山矶唐人街,警员杰克(杰克•尼科尔森 Jack Nicholson 饰)因不满这里的黑暗,辞职当起了私家侦探。这天,一个自称莫拉雷太太的女子请杰克调查丈夫的外遇,杰克欣然接受。杰克发现莫拉雷原来是当地水利总工程师,正在为兴建水坝问题和当地农民争执。随后有人给 了杰克一些证明莫拉雷偷情的照片,隔天早上真正的莫拉雷太太却找上门来要求杰克停止调查莫拉雷。
  事情变得越来越迷离,杰克决心追查下去……
唐人街4k Chinatown.1974.2160p.AMZN.WEB-DL.x265.10bit.HDR10Plus.DTS-HD.MA.TrueHD.5.1-4k电影信息
  1. Video
  2. ID : 1
  3. Format : HEVC
  4. Format/Info : High Efficiency Video Coding
  5. Format profile : Main 10@L5@Main
  6. HDR format : SMPTE ST 2094 App 4, Version 1, HDR10+ Profile B compatible
  7. Codec ID : V_MPEGH/ISO/HEVC
  8. Duration : 2 h 10 min
  9. Bit rate : 15.0 Mb/s
  10. Width : 3 840 pixels
  11. Height : 1 632 pixels
  12. Display aspect ratio : 2.35:1
  13. Frame rate mode : Constant
  14. Frame rate : 23.976 (24000/1001) FPS
  15. Color space : YUV
  16. Chroma subsampling : 4:2:0
  17. Bit depth : 10 bits
  18. Bits/(Pixel*Frame) : 0.100
  19. Stream size : 13.7 GiB (66%)
  20. Default : Yes
  21. Forced : No
  22. Color range : Limited
  23. Color primaries : BT.2020
  24. Transfer characteristics : PQ
  25. Matrix coefficients : BT.2020 non-constant
  26. Mastering display color primaries : Display P3
  27. Mastering display luminance : min: 0.0001 cd/m2, max: 1000 cd/m2
  28. Maximum Content Light Level : 1004 cd/m2
  29. Maximum Frame-Average Light Level : 52 cd/m2

  30. Audio #1
  31. ID : 2
  32. ID in the original source medium : 4352 (0x1100)
  33. Format : MLP FBA
  34. Format/Info : Meridian Lossless Packing FBA
  35. Commercial name : Dolby TrueHD
  36. Codec ID : A_TRUEHD
  37. Duration : 2 h 10 min
  38. Bit rate mode : Variable
  39. Bit rate : 3 020 kb/s
  40. Maximum bit rate : 4 668 kb/s
  41. Channel(s) : 6 channels
  42. Channel layout : L R C LFE Ls Rs
  43. Sampling rate : 48.0 kHz
  44. Frame rate : 1 200.000 FPS (40 SPF)
  45. Bit depth : 24 bits
  46. Compression mode : Lossless
  47. Stream size : 2.75 GiB (13%)
  48. Title : TrueHD 5.1
  49. Language : English
  50. Default : Yes
  51. Forced : No
  52. Original source medium : Blu-ray

  53. Audio #2
  54. ID : 3
  55. Format : DTS XLL
  56. Format/Info : Digital Theater Systems
  57. Commercial name : DTS-HD Master Audio
  58. Codec ID : A_DTS
  59. Duration : 2 h 10 min
  60. Bit rate mode : Variable
  61. Bit rate : 3 489 kb/s
  62. Channel(s) : 6 channels
  63. Channel layout : C L R Ls Rs LFE
  64. Sampling rate : 48.0 kHz
  65. Frame rate : 93.750 FPS (512 SPF)
  66. Bit depth : 24 bits
  67. Compression mode : Lossless
  68. Stream size : 3.18 GiB (15%)
  69. Language : English
  70. Default : No
  71. Forced : No

  72. Audio #3
  73. ID : 4
  74. ID in the original source medium : 4352 (0x1100)
  75. Format : AC-3
  76. Format/Info : Audio Coding 3
  77. Commercial name : Dolby Digital
  78. Codec ID : A_AC3
  79. Duration : 2 h 10 min
  80. Bit rate mode : Constant
  81. Bit rate : 640 kb/s
  82. Channel(s) : 6 channels
  83. Channel layout : L R C LFE Ls Rs
  84. Sampling rate : 48.0 kHz
  85. Frame rate : 31.250 FPS (1536 SPF)
  86. Compression mode : Lossy
  87. Delay relative to video : 24 ms
  88. Stream size : 597 MiB (3%)
  89. Title : DD 5.1
  90. Language : English
  91. Service kind : Complete Main
  92. Default : No
  93. Forced : No
  94. Original source medium : Blu-ray

  95. Audio #4
  96. ID : 5
  97. Format : E-AC-3
  98. Format/Info : Enhanced AC-3
  99. Commercial name : Dolby Digital Plus
  100. Codec ID : A_EAC3
  101. Duration : 2 h 10 min
  102. Bit rate mode : Constant
  103. Bit rate : 640 kb/s
  104. Channel(s) : 6 channels
  105. Channel layout : L R C LFE Ls Rs
  106. Sampling rate : 48.0 kHz
  107. Frame rate : 31.250 FPS (1536 SPF)
  108. Compression mode : Lossy
  109. Stream size : 597 MiB (3%)
  110. Title : DDP 5.1
  111. Language : English
  112. Service kind : Complete Main
  113. Default : No
  114. Forced : No

  115. Text
  116. ID : 6
  117. Format : UTF-8
  118. Codec ID : S_TEXT/UTF8
  119. Codec ID/Info : UTF-8 Plain Text
  120. Duration : 2 h 7 min
  121. Bit rate : 55 b/s
  122. Count of elements : 1791
  123. Stream size : 51.8 KiB (0%)
  124. Title : SDH
  125. Language : English
  126. Default : Yes
  127. Forced : No

  128. Menu
  129. 00:00:00.000 : Studio Logos
  130. 00:00:09.000 : Curly's Lament, Opening Credits
  131. 00:02:58.000 : Studio Logo
  132. 00:03:06.000 : Curly's Lament, Opening Credits
  133. 00:03:42.000 : Jake Is Hired to Investigate a Spouse
  134. 00:05:45.000 : Jake Sits In on a Town Hall Meeting
  135. 00:08:05.000 : Jake Spies on Mulwray
  136. 00:09:33.000 : Jake Follows Mulwray
  137. 00:10:06.000 : Jake Observes Mulwray
  138. 00:11:47.000 : Jake Leaves the Beach
  139. 00:12:45.000 : Jake Inspects Information He Gathered
  140. 00:14:52.000 : Jake and His Associate Take Pictures of Mulwray
  141. 00:15:32.000 : Jake Takes More Pictures of Mulwray
  142. 00:16:21.000 : Jake Confronts a Banker
  143. 00:17:48.000 : An Unexpected Visitor Reveals Herself
  144. 00:20:37.000 : Jake Snoops Around
  145. 00:23:47.000 : Jake Runs into Mulvihill
  146. 00:24:40.000 : Jake Goes to Evelyn's House
  147. 00:26:11.000 : Evelyn Arrives
  148. 00:30:48.000 : Jake Tries to Find Mulwray
  149. 00:33:26.000 : Evelyn Identifies the Body
  150. 00:35:35.000 : Jake Walks Evelyn to Her Car
  151. 00:36:10.000 : Jake Talks to the Coroner
  152. 00:37:59.000 : Jake Inspects the River
  153. 00:40:04.000 : Jake Is Confronted
  154. 00:43:05.000 : Jake Gets a Call
  155. 00:45:12.000 : Jake Meets Evelyn for Lunch
  156. 00:49:33.000 : Jake Tells Off Evelyn
  157. 00:50:43.000 : Jake Discovers Something
  158. 00:54:05.000 : Jake Asks Yelburton Some Questions
  159. 00:56:48.000 : Evelyn Pays Jake a Surprise Visit
  160. 00:59:58.000 : Jake Visits Noah
  161. 01:01:04.000 : Jake Talks to Noah
  162. 01:04:55.000 : Noah Hires Jake to Find Mulwray's Lover
  163. 01:06:29.000 : Jake Gets Information on the Orange Groves
  164. 01:08:55.000 : Jake Investigates a Farm
  165. 01:12:38.000 : Evelyn Picks Jake Up
  166. 01:13:13.000 : Jake Explains the Situation
  167. 01:14:47.000 : Jake and Evelyn Investigates Jasper's Purchase
  168. 01:16:47.000 : Jake Questions the Tenants
  169. 01:18:54.000 : Jake Fights His Way Out
  170. 01:20:22.000 : Evelyn and Jake Make Small Talk
  171. 01:22:14.000 : Evelyn Treats Jake's Nose
  172. 01:23:52.000 : Evelyn and Jake Share a Moment
  173. 01:29:25.000 : Jake Follows Evelyn
  174. 01:30:47.000 : Jake Spies on Evelyn
  175. 01:32:04.000 : Jake Extracts Information from Evelyn
  176. 01:35:31.000 : Jake Tries to Get Some Sleep
  177. 01:37:41.000 : Jake Visits Ida
  178. 01:40:33.000 : Jake Talks to Escobar and Loach
  179. 01:43:44.000 : Jake Shows Loach and Escobar the Pipe
  180. 01:44:54.000 : Jake Goes to Talk to Evelyn
  181. 01:47:13.000 : Jake Tries to Put the Pieces Together
  182. 01:53:59.000 : Jake Calls His Associates to Explain His Plan
  183. 01:55:14.000 : Jake Lies to Loach and Escobar
  184. 01:56:06.000 : Jake Convinces Escobar to Let Him Go in Alone
  185. 01:57:01.000 : Jake Asks Curly to Help Him Escape
  186. 01:57:56.000 : Jake and Curly Escape
  187. 01:59:02.000 : Jake Sends Curly Off with Evelyn's Luggage
  188. 01:59:55.000 : Jake Calls Noah
  189. 02:03:43.000 : Jake Goes to Chinatown with Noah
  190. 02:04:33.000 : Escobar Arrests Jake and His Associates
  191. 02:05:30.000 : Noah Tries to Talk to Katherine
  192. 02:09:21.000 : End Credits
复制代码


唐人街4k Chinatown.1974.2160p.AMZN.WEB-DL.x265.10bit.HDR10Plus.DTS-HD.MA.TrueHD.5.1-4k电影下载

唐人街4k Chinatown.1974.2160p.AMZN.WEB-DL.x265.10bit.HDR10Plus.DTS-HD.MA.TrueHD.5.1【20.84GB】
[Hao4k]唐人街4k Chinatown.1974.2160p.AMZN.WEB-DL.x265.10bit.HDR10Plus.DTS-HD.MA..torrent (52.78 KB)
回复

使用道具 举报

全部回复20

火舞耀扬819 发表于 2021-7-1 07:22:48

火舞耀扬819 2

2021-7-1 07:22:48

非常经典的电影
回复 支持 反对

使用道具 举报

dqxa 发表于 2021-7-1 07:40:46

dqxa 3

2021-7-1 07:40:46

经典电影,谢谢分享!
回复 支持 反对

使用道具 举报

Design_666 发表于 2021-7-1 08:31:08

Design_666 4

2021-7-1 08:31:08

谢谢分享
回复 支持 反对

使用道具 举报

bbgrnnji 发表于 2021-7-1 09:20:18

bbgrnnji 5

2021-7-1 09:20:18

不错的电影
回复 支持 反对

使用道具 举报

panbell 发表于 2021-7-1 09:54:34

panbell 6

2021-7-1 09:54:34

谢楼主分享。
回复 支持 反对

使用道具 举报

yangly 发表于 2021-7-1 10:09:13

yangly 7

2021-7-1 10:09:13


经典,谢谢分享!
回复 支持 反对

使用道具 举报

liyun80000 发表于 2021-7-1 10:49:55

liyun80000 8

2021-7-1 10:49:55

感谢楼主分享
回复 支持 反对

使用道具 举报

qiujian1976 发表于 2021-7-1 14:02:19 Hao4K手机版

qiujian1976 9

2021-7-1 14:02:19

大导演的早期电影 谢谢楼主
回复 支持 反对

使用道具 举报

beckuning 发表于 2021-7-1 15:50:37

beckuning 10

2021-7-1 15:50:37

好电影!
回复 支持 反对

使用道具 举报

tomcatf 发表于 2021-7-1 19:21:01

tomcatf 11

2021-7-1 19:21:01

经典老片,值得一看.
回复 支持 反对

使用道具 举报

aftok123 发表于 2021-7-1 20:34:23

aftok123 12

2021-7-1 20:34:23

又一早期经典  下 下 下
回复 支持 反对

使用道具 举报

农夫舅舅 发表于 2021-7-1 20:36:33

农夫舅舅 13

2021-7-1 20:36:33

下载看看,谢谢
回复 支持 反对

使用道具 举报

shengfan007 发表于 2021-7-2 19:29:41

shengfan007 14

2021-7-2 19:29:41

这是一部被电影教学奉为经典的影片
回复 支持 反对

使用道具 举报

dyczw 发表于 2021-7-3 11:51:33

dyczw 15

2021-7-3 11:51:33

比较老的片子了,只有支持一下。
回复 支持 反对

使用道具 举报

sanman 发表于 2021-7-5 09:20:11

sanman 16

2021-7-5 09:20:11

经典电影,谢谢分享!
回复 支持 反对

使用道具 举报

hdq001300 发表于 2021-7-6 07:48:28

hdq001300 17

2021-7-6 07:48:28

经典电影,谢谢分享!
回复 支持 反对

使用道具 举报

zpp008 发表于 2021-7-10 20:11:34

zpp008 18

2021-7-10 20:11:34

高分电影不多,下来看看
回复 支持 反对

使用道具 举报

   发表回复

您需要登录后才可以回帖 登录 | 立即注册

返回列表 本版积分规则

  • 在线客服

  • 返回顶部