微博 微信

Hao4K影音

电影频道
电影封面:
片  名: 冰川时代3 4k
电影分类: 冒险 喜剧 动画 
国  家: 美国 
年  代: 00年代
分 辨 率: 4K(3840x2160)
电影格式: MKV|REMUX 
画质标准: HDR10 
音质编码: DTS-HD Master Audio 
电影声道: 7.1声道 
帧数/FPS: 23.976 帧
电影语言: 中文简体 中文繁体 英文原版 
资源大小: 12.81 GB
导  演: 卡洛斯·沙尔丹哈 / 麦克·特米尔
豆瓣评分: 8.3 分
中文字幕: /thread-58982-1-1.html
剧情简介: 一群老朋友又将开始一段新的旅程。当猛犸象曼尼(Manny)沉浸在马上要当爸爸的喜悦之时,剑齿虎迭戈(Diego)却为自己的逐渐衰老而黯然伤神,此时树懒希德(Sid)则发现了三枚恐龙蛋,居然“母爱”泛滥,想作这三只小霸王龙的妈妈,结果被小恐龙真正的妈妈霸王龙掳走。
  为了寻找同伴,一群可爱的动物朋友们走进了隐藏在冰河世纪之下的“侏罗纪公园”,在这片神奇的地方,他们会认识什么新朋友,又会遭遇到什么危险,这都让所有众多“冰粉”们充满期待。
  这部电影作为20世纪福克斯公司(20th Century Fox)第一部3D形式大规模上映的动画片其制作成本达到1.2亿美元,几乎是《冰河世纪1》的两倍。
冰河世纪3:大威龙驾到 / 冰河时代3:恐龙的黎明 / 冰原历险记3 / Ice Age 3/冰川时代3 4k Ice.Age.Dawn.of.the.Dinosaurs.2009.2160p.DSNP.WEB-DL.x265.10bit.HDR.DTS-HD.MA.7.1-4k电影信息
  1. Video
  2. ID : 1
  3. Format : HEVC
  4. Format/Info : High Efficiency Video Coding
  5. Format profile : Main 10@L5@High
  6. HDR format : SMPTE ST 2086, HDR10 compatible
  7. Codec ID : V_MPEGH/ISO/HEVC
  8. Duration : 1 h 34 min
  9. Bit rate : 16.7 Mb/s
  10. Width : 3 840 pixels
  11. Height : 2 160 pixels
  12. Display aspect ratio : 16:9
  13. Frame rate mode : Constant
  14. Frame rate : 23.976 (24000/1001) FPS
  15. Color space : YUV
  16. Chroma subsampling : 4:2:0
  17. Bit depth : 10 bits
  18. Bits/(Pixel*Frame) : 0.084
  19. Stream size : 10.9 GiB (85%)
  20. Default : Yes
  21. Forced : No
  22. Color range : Limited
  23. Color primaries : BT.2020
  24. Transfer characteristics : PQ
  25. Matrix coefficients : BT.2020 non-constant
  26. Mastering display color primaries : Display P3
  27. Mastering display luminance : min: 0.0001 cd/m2, max: 1000 cd/m2

  28. Audio #1
  29. ID : 2
  30. Format : DTS ES XLL
  31. Format/Info : Digital Theater Systems
  32. Commercial name : DTS-HD Master Audio
  33. Codec ID : A_DTS
  34. Duration : 1 h 34 min
  35. Bit rate mode : Variable
  36. Bit rate : 2 576 kb/s
  37. Channel(s) : 8 channels
  38. Channel layout : C L R Ls Rs LFE Lb Rb
  39. Sampling rate : 48.0 kHz
  40. Frame rate : 93.750 FPS (512 SPF)
  41. Bit depth : 16 bits
  42. Compression mode : Lossless
  43. Stream size : 1.69 GiB (13%)
  44. Title : DTS-HD MA 7.1
  45. Language : English
  46. Default : Yes
  47. Forced : No

  48. Audio #2
  49. ID : 3
  50. Format : E-AC-3
  51. Format/Info : Enhanced AC-3
  52. Commercial name : Dolby Digital Plus
  53. Codec ID : A_EAC3
  54. Duration : 1 h 34 min
  55. Bit rate mode : Constant
  56. Bit rate : 256 kb/s
  57. Channel(s) : 6 channels
  58. Channel layout : L R C LFE Ls Rs
  59. Sampling rate : 48.0 kHz
  60. Frame rate : 31.250 FPS (1536 SPF)
  61. Compression mode : Lossy
  62. Stream size : 172 MiB (1%)
  63. Title : DDP 5.1
  64. Language : English
  65. Service kind : Complete Main
  66. Default : No
  67. Forced : No

  68. Text #1
  69. ID : 4
  70. Format : UTF-8
  71. Codec ID : S_TEXT/UTF8
  72. Codec ID/Info : UTF-8 Plain Text
  73. Duration : 1 h 33 min
  74. Bit rate : 61 b/s
  75. Count of elements : 2113
  76. Stream size : 42.2 KiB (0%)
  77. Title : SDH
  78. Language : English
  79. Default : Yes
  80. Forced : No

  81. Text #2
  82. ID : 5
  83. Format : UTF-8
  84. Codec ID : S_TEXT/UTF8
  85. Codec ID/Info : UTF-8 Plain Text
  86. Duration : 1 h 23 min
  87. Bit rate : 39 b/s
  88. Count of elements : 816
  89. Stream size : 24.3 KiB (0%)
  90. Language : Chinese
  91. Default : No
  92. Forced : No

  93. Text #3
  94. ID : 6
  95. Format : UTF-8
  96. Codec ID : S_TEXT/UTF8
  97. Codec ID/Info : UTF-8 Plain Text
  98. Duration : 1 h 26 min
  99. Bit rate : 33 b/s
  100. Count of elements : 817
  101. Stream size : 21.2 KiB (0%)
  102. Language : Chinese
  103. Default : No
  104. Forced : No

  105. Text #4
  106. ID : 7
  107. Format : UTF-8
  108. Codec ID : S_TEXT/UTF8
  109. Codec ID/Info : UTF-8 Plain Text
  110. Duration : 1 h 23 min
  111. Bit rate : 30 b/s
  112. Count of elements : 816
  113. Stream size : 18.4 KiB (0%)
  114. Language : Chinese
  115. Default : No
  116. Forced : No

  117. Text #5
  118. ID : 8
  119. Format : UTF-8
  120. Codec ID : S_TEXT/UTF8
  121. Codec ID/Info : UTF-8 Plain Text
  122. Duration : 1 h 30 min
  123. Bit rate : 37 b/s
  124. Count of elements : 817
  125. Stream size : 25.0 KiB (0%)
  126. Language : Danish
  127. Default : No
  128. Forced : No

  129. Text #6
  130. ID : 9
  131. Format : UTF-8
  132. Codec ID : S_TEXT/UTF8
  133. Codec ID/Info : UTF-8 Plain Text
  134. Duration : 1 h 23 min
  135. Bit rate : 49 b/s
  136. Count of elements : 816
  137. Stream size : 30.3 KiB (0%)
  138. Language : German
  139. Default : No
  140. Forced : No

  141. Text #7
  142. ID : 10
  143. Format : UTF-8
  144. Codec ID : S_TEXT/UTF8
  145. Codec ID/Info : UTF-8 Plain Text
  146. Duration : 1 h 23 min
  147. Bit rate : 41 b/s
  148. Count of elements : 813
  149. Stream size : 25.2 KiB (0%)
  150. Title : Latin American
  151. Language : Spanish
  152. Default : No
  153. Forced : No

  154. Text #8
  155. ID : 11
  156. Format : UTF-8
  157. Codec ID : S_TEXT/UTF8
  158. Codec ID/Info : UTF-8 Plain Text
  159. Duration : 1 h 23 min
  160. Bit rate : 44 b/s
  161. Count of elements : 816
  162. Stream size : 27.3 KiB (0%)
  163. Language : Spanish
  164. Default : No
  165. Forced : No

  166. Text #9
  167. ID : 12
  168. Format : UTF-8
  169. Codec ID : S_TEXT/UTF8
  170. Codec ID/Info : UTF-8 Plain Text
  171. Duration : 1 h 33 min
  172. Bit rate : 31 b/s
  173. Count of elements : 815
  174. Stream size : 21.7 KiB (0%)
  175. Language : Finnish
  176. Default : No
  177. Forced : No
复制代码

冰河世纪3:大威龙驾到 / 冰河时代3:恐龙的黎明 / 冰原历险记3 / Ice Age 3/冰川时代3 4k Ice.Age.Dawn.of.the.Dinosaurs.2009.2160p.DSNP.WEB-DL.x265.10bit.HDR.DTS-HD.MA.7.1-4k电影下载

冰川时代3 4k Ice.Age.Dawn.of.the.Dinosaurs.2009.2160p.DSNP.WEB-DL.x265.10bit.HDR.DTS-HD.MA.7.1【12.81GB】
[Hao4k]冰川时代3 4k Ice.Age.Dawn.of.the.Dinosaurs.2009.2160p.DSNP.WEB-DL.x265.10.torrent (64.75 KB, 售价: 2 个K币)
回复

使用道具 举报

全部回复42

13327866066 发表于 2021-7-1 08:15:01

13327866066 2

2021-7-1 08:15:01

谢谢楼主分享。
回复 支持 1 反对 0

使用道具 举报

Design_666 发表于 2021-7-1 08:30:48

Design_666 3

2021-7-1 08:30:48

谢谢分享
回复 支持 反对

使用道具 举报

yanghoop 发表于 2021-7-1 08:41:25

yanghoop 4

2021-7-1 08:41:25

和小朋友一起看
回复 支持 反对

使用道具 举报

56789trewq 发表于 2021-7-1 08:44:03

56789trewq 5

2021-7-1 08:44:03

感謝樓主提供這麼多4K畫質內容,期待您往後的分享!
回复 支持 反对

使用道具 举报

zyq53719 发表于 2021-7-1 08:53:06

zyq53719 6

2021-7-1 08:53:06

很喜欢的片子,看过几遍了
回复 支持 反对

使用道具 举报

a1004292933 发表于 2021-7-1 09:14:16

a1004292933 7

2021-7-1 09:14:16

谢谢楼主分享 i like 某北某北
回复 支持 反对

使用道具 举报

panbell 发表于 2021-7-1 09:54:01

panbell 8

2021-7-1 09:54:01

谢楼主分享。
回复 支持 反对

使用道具 举报

cdyangjun2019 发表于 2021-7-1 09:55:15

cdyangjun2019 9

2021-7-1 09:55:15

很不错的动画片,谢谢楼主分享
回复 支持 反对

使用道具 举报

玄离大人 发表于 2021-7-1 10:31:58

玄离大人 10

2021-7-1 10:31:58

很棒的一部电影,值得推荐。。
回复 支持 反对

使用道具 举报

virve01 发表于 2021-7-1 11:06:01

virve01 11

2021-7-1 11:06:01

感谢楼主分享
回复 支持 反对

使用道具 举报

peach93 发表于 2021-7-1 11:16:59

peach93 12

2021-7-1 11:16:59

感谢楼主无私的分享~
回复 支持 反对

使用道具 举报

凤翼天翔 发表于 2021-7-1 11:21:00 Hao4K手机版

凤翼天翔 13

2021-7-1 11:21:00

谢谢楼主的无私奉献。
回复 支持 反对

使用道具 举报

月光麦田 发表于 2021-7-1 11:30:39

月光麦田 14

2021-7-1 11:30:39

谢谢分享
回复 支持 反对

使用道具 举报

Xzysky 发表于 2021-7-1 14:02:25

Xzysky 15

2021-7-1 14:02:25

十分经典的动画片,谢谢分享。
回复 支持 反对

使用道具 举报

qiujian1976 发表于 2021-7-1 14:03:11 Hao4K手机版

qiujian1976 16

2021-7-1 14:03:11

早期电脑动画电影的经典之作
回复 支持 反对

使用道具 举报

风雨清娈 发表于 2021-7-1 15:44:18

风雨清娈 17

2021-7-1 15:44:18

没资源啊  
回复 支持 反对

使用道具 举报

w871345512 发表于 2021-7-1 15:49:21

w871345512 18

2021-7-1 15:49:21

感谢群主分享
回复 支持 反对

使用道具 举报

   发表回复

您需要登录后才可以回帖 登录 | 立即注册

返回列表 本版积分规则

  • 在线客服

  • 返回顶部