微博 微信

Hao4K影音

电影频道
电影封面:
片  名: 切勿擅动4k
电影分类: 犯罪 惊悚 剧情 
国  家: 美国 
年  代: 2021年
分 辨 率: 4K(3840x2160)
电影格式: MKV|REMUX 
画质标准: HDR10 
音质编码: Dolby Digital Audio 
电影声道: 5.1声道 
帧数/FPS: 23.976 帧
电影语言: 英文原版 
资源大小: 14.67 GB
导  演: 史蒂文·索德伯格
豆瓣评分: 6.9 分
中文字幕: /thread-59082-1-1.html
剧情简介: 一群犯罪分子在神秘的环境下被聚集在一起,当他们简单的工作完全出现偏差时,他们不得不一起努力去揭开到底发生了什么。
双重谋杀 / Kill Switch/切勿擅动4k No.Sudden.Move.2021.HDR.2160p.WEB.H265-4k电影信息
  1. Video
  2. ID : 1
  3. Format : HEVC
  4. Format/Info : High Efficiency Video Coding
  5. Format profile : Main 10@L5@Main
  6. HDR format : SMPTE ST 2086, HDR10 compatible
  7. Codec ID : V_MPEGH/ISO/HEVC
  8. Duration : 1 h 55 min
  9. Bit rate : 17.9 Mb/s
  10. Width : 3 840 pixels
  11. Height : 2 160 pixels
  12. Display aspect ratio : 16:9
  13. Frame rate mode : Constant
  14. Frame rate : 23.976 (24000/1001) FPS
  15. Color space : YUV
  16. Chroma subsampling : 4:2:0
  17. Bit depth : 10 bits
  18. Bits/(Pixel*Frame) : 0.090
  19. Stream size : 14.4 GiB (98%)
  20. Writing library : x265 3.4hy:[Linux][GCC 7.5.0][64 bit] 10bit
  21. Encoding settings : cpuid=1111039 / frame-threads=1 / wpp / no-pmode / no-pme / no-psnr / no-ssim / log-level=2 / input-csp=1 / input-res=3840x2160 / interlace=0 / total-frames=0 / level-idc=0 / high-tier=1 / uhd-bd=0 / ref=4 / no-allow-non-conformance / repeat-headers / annexb / no-aud / no-hrd / info / hash=0 / no-temporal-layers / no-open-gop / min-keyint=96 / keyint=96 / gop-lookahead=0 / bframes=3 / b-adapt=2 / b-pyramid / bframe-bias=0 / rc-lookahead=25 / lookahead-slices=4 / scenecut=40 / hist-scenecut=0 / radl=0 / no-splice / no-intra-refresh / ctu=64 / min-cu-size=8 / rect / no-amp / max-tu-size=32 / tu-inter-depth=1 / tu-intra-depth=1 / limit-tu=0 / rdoq-level=2 / dynamic-rd=0.00 / no-ssim-rd / signhide / no-tskip / nr-intra=0 / nr-inter=0 / no-constrained-intra / strong-intra-smoothing / max-merge=3 / limit-refs=3 / limit-modes / me=3 / subme=3 / merange=57 / temporal-mvp / no-frame-dup / no-hme / weightp / no-weightb / no-analyze-src-pics / deblock=0:0 / sao / no-sao-non-deblock / rd=4 / selective-sao=4 / no-early-skip / rskip / no-fast-intra / no-tskip-fast / no-cu-lossless / no-b-intra / no-splitrd-skip / rdpenalty=0 / psy-rd=2.00 / psy-rdoq=1.00 / no-rd-refine / no-lossless / cbqpoffs=0 / crqpoffs=0 / rc=abr / bitrate=18000 / qcomp=0.60 / qpstep=4 / stats-write=0 / stats-read=2 / cplxblur=20.0 / qblur=0.5 / vbv-maxrate=24500 / vbv-bufsize=24500 / vbv-init=0.6 / vbv-end=0.6 / vbv-end-fr-adj=0.0 / ipratio=1.40 / pbratio=1.30 / aq-mode=2 / aq-strength=1.00 / cutree / zone-count=0 / no-strict-cbr / qg-size=32 / no-rc-grain / qpmax=69 / qpmin=0 / no-const-vbv / sar=0 / overscan=0 / videoformat=5 / range=0 / colorprim=9 / transfer=16 / colormatrix=9 / chromaloc=0 / display-window=0 / master-display=G(8500,39850)B(6550,2300)R(35400,14600)WP(15635,16450)L(10000000,1) / cll=494,113 / min-luma=0 / max-luma=1023 / log2-max-poc-lsb=8 / vui-timing-info / vui-hrd-info / no-concatenation / slices=1 / no-opt-qp-pps / no-opt-ref-list-length-pps / no-multi-pass-opt-rps / scenecut-bias=0.05 / hist-threshold=0.01 / no-opt-cu-delta-qp / no-aq-motion / hdr10 / no-hdr10-opt / no-dhdr10-opt / no-idr-recovery-sei / analysis-reuse-level=0 / analysis-save-reuse-level=0 / analysis-load-reuse-level=0 / scale-factor=0 / refine-intra=0 / refine-inter=0 / refine-mv=1 / refine-ctu-distortion=0 / no-limit-sao / ctu-info=0 / no-lowpass-dct / refine-analysis-type=0 / copy-pic=1 / max-ausize-factor=1.0 / no-dynamic-refine / no-single-sei / no-hevc-aq / no-svt / no-field / qp-adaptation-range=1.00 / no-scenecut-aware-qpconformance-window-offsets / right=0 / bottom=0 / decoder-max-rate=0
  22. Default : Yes
  23. Forced : No
  24. Color range : Limited
  25. Color primaries : BT.2020
  26. Transfer characteristics : PQ
  27. Matrix coefficients : BT.2020 non-constant
  28. Mastering display color primaries : BT.2020
  29. Mastering display luminance : min: 0.0001 cd/m2, max: 1000 cd/m2
  30. Maximum Content Light Level : 494 cd/m2
  31. Maximum Frame-Average Light Level : 113 cd/m2

  32. Audio
  33. ID : 2
  34. Format : AC-3
  35. Format/Info : Audio Coding 3
  36. Commercial name : Dolby Digital
  37. Codec ID : A_AC3
  38. Duration : 1 h 55 min
  39. Bit rate mode : Constant
  40. Bit rate : 384 kb/s
  41. Channel(s) : 6 channels
  42. Channel layout : L R C LFE Ls Rs
  43. Sampling rate : 48.0 kHz
  44. Frame rate : 31.250 FPS (1536 SPF)
  45. Compression mode : Lossy
  46. Stream size : 316 MiB (2%)
  47. Title : English
  48. Language : English
  49. Service kind : Complete Main
  50. Default : No
  51. Forced : No

  52. Text #1
  53. ID : 3
  54. Format : UTF-8
  55. Codec ID : S_TEXT/UTF8
  56. Codec ID/Info : UTF-8 Plain Text
  57. Duration : 1 h 52 min
  58. Bit rate : 56 b/s
  59. Count of elements : 1516
  60. Stream size : 46.3 KiB (0%)
  61. Title : English
  62. Language : English
  63. Default : No
  64. Forced : No

  65. Text #2
  66. ID : 4
  67. Format : UTF-8
  68. Codec ID : S_TEXT/UTF8
  69. Codec ID/Info : UTF-8 Plain Text
  70. Duration : 1 h 54 min
  71. Bit rate : 60 b/s
  72. Count of elements : 1646
  73. Stream size : 50.9 KiB (0%)
  74. Title : English SDH
  75. Language : English
  76. Default : No
  77. Forced : No
复制代码

双重谋杀 / Kill Switch/切勿擅动4k No.Sudden.Move.2021.HDR.2160p.WEB.H265-4k电影下载

切勿擅动4k No.Sudden.Move.2021.HDR.2160p.WEB.H265【14.67GB】
[Hao4k]切勿擅动4k No.Sudden.Move.2021.HDR.2160p.WEB.H265-TIMECUT.torrent (74.06 KB, 售价: 2 个K币)
回复

使用道具 举报

全部回复20

老弟 发表于 2021-7-2 08:15:00 Hao4K手机版

老弟 2

2021-7-2 08:15:00

感谢好4k,下载看看
回复 支持 反对

使用道具 举报

dk30129 发表于 2021-7-2 08:20:51

dk30129 3

2021-7-2 08:20:51

谢谢分享,顶你!!!
回复 支持 反对

使用道具 举报

56789trewq 发表于 2021-7-2 11:02:05

56789trewq 4

2021-7-2 11:02:05

感謝樓主分享好電影,希望以後還能繼續看到更多的資源!
回复 支持 反对

使用道具 举报

jiaxiangyin 发表于 2021-7-2 11:19:02

jiaxiangyin 5

2021-7-2 11:19:02

谢谢楼主的分享,谢谢好4K,希望论坛兴旺!
回复 支持 反对

使用道具 举报

kong009 发表于 2021-7-2 13:46:58

kong009 6

2021-7-2 13:46:58

切勿擅动字幕在哪里呢
回复 支持 1 反对 0

使用道具 举报

liubaijun 发表于 2021-7-2 15:10:17

liubaijun 7

2021-7-2 15:10:17

感谢分享更多的资源
回复 支持 反对

使用道具 举报

longdejimoczh 发表于 2021-7-2 21:47:14

longdejimoczh 8

2021-7-2 21:47:14

赞!感谢分享!!!!!
回复 支持 反对

使用道具 举报

yangminji70 发表于 2021-7-2 22:49:40

yangminji70 9

2021-7-2 22:49:40

感謝樓主分享好電影赞
回复 支持 反对

使用道具 举报

myc116 发表于 2021-7-3 11:49:26

myc116 10

2021-7-3 11:49:26

感觉不错谢谢
回复 支持 反对

使用道具 举报

火舞耀扬819 发表于 2021-7-3 11:51:22

火舞耀扬819 11

2021-7-3 11:51:22

刚刚上映的电影,这么快就有资源了,牛逼
回复 支持 反对

使用道具 举报

llishun 发表于 2021-7-3 18:59:44

llishun 12

2021-7-3 18:59:44

楼主辛苦了...................
回复 支持 反对

使用道具 举报

zhy1114 发表于 2021-7-3 20:04:06

zhy1114 13

2021-7-3 20:04:06

太好了,感谢分享
回复 支持 反对

使用道具 举报

haig 发表于 2021-7-4 11:15:04

haig 14

2021-7-4 11:15:04

谢谢分享
回复 支持 反对

使用道具 举报

llishun 发表于 2021-7-4 19:38:23

llishun 15

2021-7-4 19:38:23

第二个MP4版本,而且颜色不对..................
回复 支持 反对

使用道具 举报

yangly 发表于 2021-7-5 11:01:28

yangly 16

2021-7-5 11:01:28

感谢分享资源
回复 支持 反对

使用道具 举报

liyun80000 发表于 2021-7-5 12:45:14

liyun80000 17

2021-7-5 12:45:14


谢谢楼主分享
回复 支持 反对

使用道具 举报

silenp 发表于 2021-7-12 08:57:42

silenp 18

2021-7-12 08:57:42

感谢分享啊
回复 支持 反对

使用道具 举报

   发表回复

您需要登录后才可以回帖 登录 | 立即注册

返回列表 本版积分规则

  • 在线客服

  • 返回顶部