微博 微信

Hao4K影音

电影频道
电影封面:
片  名: 都是真的4k
电影分类: 剧情 历史 传记 
国  家: 美国 
年  代: 2018年
分 辨 率: 4K(3840x2160)
电影格式: MKV|REMUX 
画质标准: HDR10 
音质编码: DTS-HD Master Audio 
电影声道: 5.1声道 
帧数/FPS: 23.976 帧
电影语言: 英文原版 
资源大小: 53.87 GB
导  演: 肯尼思·布拉纳
豆瓣评分: 6.9 分
中文字幕: /thread-59095-1-1.html
剧情简介: 索尼经典拿下莎士比亚历史剧情片《都是真的》(All Is True)的全球版权,肯尼斯·布拉纳执导并与朱迪·丹奇、伊恩·麦克莱恩主演。该片将于12月21日在纽约和洛杉矶上映一周,确保能参与颁奖季角逐,明年正式上映。
  设定在1613年,莎士比亚被公认为是最伟大的作家,但在他著名的环球剧场被夷为平地后,被压垮的莎士比亚回到了斯特拉特福德,他必须面对一个麻烦的过去和一个被忽视的家庭。他唯一的儿子哈姆内特去世,他挣扎着修补与妻子和女儿破碎的关系,被迫审视自己作为丈夫和父亲的失败,他对真相的个人探索揭示了家庭内部的秘密和谎言。
莎士比亚的最后时光(台)/都是真的4k All.Is.True.2018.2160p.BCORE.WEB-DL.x265.10bit.HDR.DTS-HD.MA.5.1-4k电影信息
  1. Video
  2. ID : 1
  3. Format : HEVC
  4. Format/Info : High Efficiency Video Coding
  5. Format profile : Main 10@L5.2@High
  6. HDR format : SMPTE ST 2086, HDR10 compatible
  7. Codec ID : V_MPEGH/ISO/HEVC
  8. Duration : 1 h 40 min
  9. Bit rate : 73.3 Mb/s
  10. Width : 3 840 pixels
  11. Height : 2 160 pixels
  12. Display aspect ratio : 16:9
  13. Frame rate mode : Constant
  14. Frame rate : 23.976 (24000/1001) FPS
  15. Color space : YUV
  16. Chroma subsampling : 4:2:0 (Type 2)
  17. Bit depth : 10 bits
  18. Bits/(Pixel*Frame) : 0.369
  19. Stream size : 51.7 GiB (96%)
  20. Language : English
  21. Default : Yes
  22. Forced : No
  23. Color range : Limited
  24. Color primaries : BT.2020
  25. Transfer characteristics : PQ
  26. Matrix coefficients : BT.2020 non-constant
  27. Mastering display color primaries : Display P3
  28. Mastering display luminance : min: 0.0050 cd/m2, max: 4000 cd/m2
  29. Maximum Content Light Level : 898 cd/m2
  30. Maximum Frame-Average Light Level : 192 cd/m2

  31. Audio #1
  32. ID : 2
  33. Format : DTS XLL
  34. Format/Info : Digital Theater Systems
  35. Commercial name : DTS-HD Master Audio
  36. Codec ID : A_DTS
  37. Duration : 1 h 40 min
  38. Bit rate mode : Variable
  39. Bit rate : 1 728 kb/s
  40. Channel(s) : 6 channels
  41. Channel layout : C L R Ls Rs LFE
  42. Sampling rate : 48.0 kHz
  43. Frame rate : 93.750 FPS (512 SPF)
  44. Bit depth : 16 bits
  45. Compression mode : Lossless
  46. Delay relative to video : 1 s 0 ms
  47. Stream size : 1.22 GiB (2%)
  48. Title : DTS-HD MA 5.1
  49. Language : English
  50. Default : Yes
  51. Forced : No

  52. Audio #2
  53. ID : 3
  54. Format : AC-3
  55. Format/Info : Audio Coding 3
  56. Commercial name : Dolby Digital
  57. Codec ID : A_AC3
  58. Duration : 1 h 40 min
  59. Bit rate mode : Constant
  60. Bit rate : 640 kb/s
  61. Channel(s) : 6 channels
  62. Channel layout : L R C LFE Ls Rs
  63. Sampling rate : 48.0 kHz
  64. Frame rate : 31.250 FPS (1536 SPF)
  65. Compression mode : Lossy
  66. Stream size : 462 MiB (1%)
  67. Title : DD 5.1
  68. Language : English
  69. Service kind : Complete Main
  70. Default : No
  71. Forced : No

  72. Audio #3
  73. ID : 4
  74. Format : DTS
  75. Format/Info : Digital Theater Systems
  76. Codec ID : A_DTS
  77. Duration : 1 h 40 min
  78. Bit rate mode : Constant
  79. Bit rate : 768 kb/s
  80. Channel(s) : 6 channels
  81. Channel layout : C L R Ls Rs LFE
  82. Sampling rate : 48.0 kHz
  83. Frame rate : 93.750 FPS (512 SPF)
  84. Bit depth : 24 bits
  85. Compression mode : Lossy
  86. Stream size : 554 MiB (1%)
  87. Title : DTS 5.1
  88. Language : English
  89. Default : No
  90. Forced : No

  91. Text
  92. ID : 5
  93. Format : UTF-8
  94. Codec ID : S_TEXT/UTF8
  95. Codec ID/Info : UTF-8 Plain Text
  96. Duration : 1 h 40 min
  97. Bit rate : 79 b/s
  98. Count of elements : 1446
  99. Stream size : 58.8 KiB (0%)
  100. Language : English
  101. Default : No
  102. Forced : No

  103. Menu
  104. 00:00:00.000 : Chapter 1
  105. 00:05:59.359 : Chapter 2
  106. 00:12:24.159 : Chapter 3
  107. 00:18:53.131 : Chapter 4
  108. 00:22:30.431 : Chapter 5
  109. 00:29:20.174 : Chapter 6
  110. 00:35:47.269 : Chapter 7
  111. 00:39:06.426 : Chapter 8
  112. 00:49:07.902 : Chapter 9
  113. 00:59:53.839 : Chapter 10
  114. 01:03:35.352 : Chapter 11
  115. 01:09:43.762 : Chapter 12
  116. 01:15:15.010 : Chapter 13
  117. 01:18:54.020 : Chapter 14
  118. 01:25:13.149 : Chapter 15
  119. 01:31:34.196 : Chapter 16
复制代码

莎士比亚的最后时光(台)/都是真的4k All.Is.True.2018.2160p.BCORE.WEB-DL.x265.10bit.HDR.DTS-HD.MA.5.1-4k电影下载

都是真的4k All.Is.True.2018.2160p.BCORE.WEB-DL.x265.10bit.HDR.DTS-HD.MA.5.1【53.87GB】
[Hao4k]都是真的4K All.Is.True.2018.2160p.BCORE.WEB-DL.x265.10bit.HDR.DTS-HD.MA.5.torrent (135.35 KB)
回复

使用道具 举报

全部回复8

bbgrnnji 发表于 2021-7-2 09:15:11

bbgrnnji 2

2021-7-2 09:15:11

感觉还是可以看看的
回复 支持 反对

使用道具 举报

qiujian1976 发表于 2021-7-2 10:05:36 Hao4K手机版

qiujian1976 3

2021-7-2 10:05:36

看起来很不错 感謝分享
回复 支持 反对

使用道具 举报

56789trewq 发表于 2021-7-2 11:01:47

56789trewq 4

2021-7-2 11:01:47

感謝樓主分享好電影,希望以後還能繼續看到更多的資源!
回复 支持 反对

使用道具 举报

19902213105 发表于 2021-7-4 10:28:24

19902213105 5

2021-7-4 10:28:24

这是个好贴,不用钱~~~~
回复 支持 反对

使用道具 举报

jackss 发表于 2021-7-4 14:08:37

jackss 6

2021-7-4 14:08:37

谢谢分享
回复 支持 反对

使用道具 举报

ywf6168 发表于 2021-7-5 10:23:52 Hao4K手机版

ywf6168 7

2021-7-5 10:23:52

感谢分享
回复 支持 反对

使用道具 举报

月光麦田 发表于 2021-7-6 08:48:25

月光麦田 8

2021-7-6 08:48:25

谢谢分享
回复 支持 反对

使用道具 举报

guanyunht 发表于 4 天前

guanyunht 9

4 天前

这种类型的片子,怎么说呢,可以看看,嘿嘿
回复 支持 反对

使用道具 举报

   发表回复

您需要登录后才可以回帖 登录 | 立即注册

返回列表 本版积分规则

  • 在线客服

  • 返回顶部