微博 微信

Hao4K影音

电影频道
电影封面:
片  名: 比得兔2:逃跑计划4k
电影分类: 冒险 喜剧 动画 
国  家: 美国 英国 加拿大 印度 其他 
年  代: 2021年
分 辨 率: 4K(3840x2160)
电影格式: MKV|REMUX 
画质标准: HDR SDR 
音质编码: Dolby Digital Plus Audio 
电影声道: 5.1声道 
帧数/FPS: 23.976 帧
电影语言: 英文原版 
资源大小: 9.66 GB
导  演: 威尔·古勒
豆瓣评分: 7.3 分
中文字幕: /thread-59008-1-1.html
剧情简介: 为了追求自己的“兔”生意义,年少轻狂的比得(詹姆斯·柯登 James Corden 配音)踏上了背井离乡的路并成功赢得老江湖巴拿巴的青睐、成为了团伙中的扛把子,怎料却将追随而来的昔日老友们推入死亡陷阱。 幡然醒悟后,比得化身“兔界阿汤哥”带领同伴展开海陆空三栖大营救。高空跳伞、水下救援、雪山速滑、快艇追击,无所不能。在这场冒险旅途中,比得收获了友情,理解了亲情,最终实现了自我成长,成为真正的“兔一哥”。
比得兔2:走佬日记(港) / 比得兔兔(台) / 比得兔2 / 彼得兔2 / Peter Rabbit 2/比得兔2:逃跑计划4k Peter.Rabbit.2.The.Runaway.2021.2160p.WEB-DL.x265.10bit.HDR.DDP5.1.Atmos-4k电影信息
  1. Video
  2. ID : 1
  3. Format : HEVC
  4. Format/Info : High Efficiency Video Coding
  5. Format profile : Main 10@L5@High
  6. HDR format : SMPTE ST 2086, HDR10 compatible
  7. Codec ID : V_MPEGH/ISO/HEVC
  8. Duration : 1 h 33 min
  9. Bit rate : 14.0 Mb/s
  10. Width : 3 840 pixels
  11. Height : 1 590 pixels
  12. Display aspect ratio : 2.40:1
  13. Frame rate mode : Constant
  14. Frame rate : 23.976 (23976/1000) FPS
  15. Color space : YUV
  16. Chroma subsampling : 4:2:0 (Type 2)
  17. Bit depth : 10 bits
  18. Bits/(Pixel*Frame) : 0.096
  19. Stream size : 9.16 GiB (95%)
  20. Default : Yes
  21. Forced : No
  22. Color range : Limited
  23. Color primaries : BT.2020
  24. Transfer characteristics : PQ
  25. Matrix coefficients : BT.2020 non-constant
  26. Mastering display color primaries : Display P3
  27. Mastering display luminance : min: 0.0001 cd/m2, max: 1000 cd/m2
  28. Maximum Content Light Level : 1083 cd/m2
  29. Maximum Frame-Average Light Level : 422 cd/m2

  30. Audio
  31. ID : 2
  32. Format : E-AC-3 JOC
  33. Format/Info : Enhanced AC-3 with Joint Object Coding
  34. Commercial name : Dolby Digital Plus with Dolby Atmos
  35. Codec ID : A_EAC3
  36. Duration : 1 h 33 min
  37. Bit rate mode : Constant
  38. Bit rate : 768 kb/s
  39. Channel(s) : 6 channels
  40. Channel layout : L R C LFE Ls Rs
  41. Sampling rate : 48.0 kHz
  42. Frame rate : 31.250 FPS (1536 SPF)
  43. Compression mode : Lossy
  44. Stream size : 513 MiB (5%)
  45. Title : English
  46. Language : English
  47. Service kind : Complete Main
  48. Default : No
  49. Forced : No
  50. Complexity index : 16
  51. Number of dynamic objects : 15
  52. Bed channel count : 1 channel
  53. Bed channel configuration : LFE

  54. Text #1
  55. ID : 3
  56. Format : UTF-8
  57. Codec ID : S_TEXT/UTF8
  58. Codec ID/Info : UTF-8 Plain Text
  59. Duration : 1 h 26 min
  60. Bit rate : 76 b/s
  61. Count of elements : 1378
  62. Stream size : 48.2 KiB (0%)
  63. Language : English
  64. Default : Yes
  65. Forced : No

  66. Text #2
  67. ID : 4
  68. Format : UTF-8
  69. Codec ID : S_TEXT/UTF8
  70. Codec ID/Info : UTF-8 Plain Text
  71. Duration : 1 h 33 min
  72. Bit rate : 88 b/s
  73. Count of elements : 1991
  74. Stream size : 60.1 KiB (0%)
  75. Title : SDH
  76. Language : English
  77. Default : No
  78. Forced : No
复制代码

比得兔2:走佬日记(港) / 比得兔兔(台) / 比得兔2 / 彼得兔2 / Peter Rabbit 2/比得兔2:逃跑计划4k Peter.Rabbit.2.The.Runaway.2021.2160p.WEB-DL.x265.10bit.HDR.DDP5.1.Atmos-4k电影下载

比得兔2:逃跑计划4k Peter.Rabbit.2.The.Runaway.2021.2160p.BCORE.WEB-DL.x265.10bit.HDR.DTS-HD.MA.5.1【48.86 GB】2021年7月31日更新
[Hao4k]比得兔2:逃跑计划4k Peter.Rabbit.2.The.Runaway.2021.2160p.BCORE.WEB-DL.x2.torrent (61.76 KB, 售价: 3 个K币)
回复

使用道具 举报

   发表回复

您需要登录后才可以回帖 登录 | 立即注册

返回列表 本版积分规则

  • 在线客服

  • 返回顶部