微博 微信

Hao4K影音

电影频道
电影封面:
片  名: 至死不渝4K
电影分类: 惊悚 
国  家: 美国 
年  代: 2021年
分 辨 率: 4K(3840x2160)
电影格式: MKV|REMUX 
画质标准: 其他 
音质编码: Dolby Digital Audio 
电影声道: 5.1声道 
帧数/FPS: 23.976 帧
电影语言: 英文原版 
资源大小: 7.50 GB
导  演: S.K. Dale
豆瓣评分: 6.2 分
中文字幕: /thread-59170-1-1.html
剧情简介: 梅根·福克斯(Megan Fox)已签约出演《至死不渝》(Till Death),这是千禧传媒公司导演SK Dale制作的惊悚恐怖惊悚片,该公司正将这部影片带给Efm,以积极推动全球买家。影片讲述了Emma(Fox)的故事,她是一个令人作呕的复仇剧情的一部分,被戴上死去 的丈夫的手铐,必须在两名杀手的杀戮中幸存下来才能完成工作。
至死不渝4K.Till.Death.2021.2160p.WEB.H265-4k电影信息
  1. Video
  2. ID : 1
  3. Format : HEVC
  4. Format/Info : High Efficiency Video Coding
  5. Format profile : Main 10@L5@High
  6. Codec ID : V_MPEGH/ISO/HEVC
  7. Duration : 1 h 28 min
  8. Bit rate : 11.7 Mb/s
  9. Width : 3 836 pixels
  10. Height : 1 720 pixels
  11. Display aspect ratio : 2.25:1
  12. Frame rate mode : Constant
  13. Frame rate : 23.976 (23976/1000) FPS
  14. Color space : YUV
  15. Chroma subsampling : 4:2:0
  16. Bit depth : 10 bits
  17. Bits/(Pixel*Frame) : 0.074
  18. Stream size : 7.26 GiB (97%)
  19. Default : Yes
  20. Forced : No
  21. Color range : Limited
  22. Color primaries : BT.709
  23. Transfer characteristics : BT.709
  24. Matrix coefficients : BT.709

  25. Audio
  26. ID : 2
  27. Format : AC-3
  28. Format/Info : Audio Coding 3
  29. Commercial name : Dolby Digital
  30. Codec ID : A_AC3
  31. Duration : 1 h 28 min
  32. Bit rate mode : Constant
  33. Bit rate : 384 kb/s
  34. Channel(s) : 6 channels
  35. Channel layout : L R C LFE Ls Rs
  36. Sampling rate : 48.0 kHz
  37. Frame rate : 31.250 FPS (1536 SPF)
  38. Compression mode : Lossy
  39. Stream size : 244 MiB (3%)
  40. Title : English
  41. Language : English
  42. Service kind : Complete Main
  43. Default : No
  44. Forced : No

  45. Text #1
  46. ID : 3
  47. Format : UTF-8
  48. Codec ID : S_TEXT/UTF8
  49. Codec ID/Info : UTF-8 Plain Text
  50. Duration : 21 min 5 s
  51. Bit rate : 31 b/s
  52. Count of elements : 182
  53. Stream size : 4.87 KiB (0%)
  54. Title : English
  55. Language : English
  56. Default : No
  57. Forced : No

  58. Text #2
  59. ID : 4
  60. Format : UTF-8
  61. Codec ID : S_TEXT/UTF8
  62. Codec ID/Info : UTF-8 Plain Text
  63. Duration : 23 min 38 s
  64. Bit rate : 35 b/s
  65. Count of elements : 235
  66. Stream size : 6.09 KiB (0%)
  67. Title : English SDH
  68. Language : English
  69. Default : No
  70. Forced : No
复制代码

至死不渝4K.Till.Death.2021.2160p.WEB.H265-4K电影下载

至死不渝4K.Till.Death.2021.2160p.WEB.H265【7.50 GB】
[Hao4K]至死不渝4K.Till.Death.2021.2160p.WEB.H265-EMPATHY.torrent (38.16 KB, 售价: 2 个K币)
回复

使用道具 举报

全部回复49

勇往直前168 发表于 2021-7-2 16:32:25

勇往直前168 2

2021-7-2 16:32:25

谢谢分享
回复 支持 反对

使用道具 举报

zwylovezyj 发表于 2021-7-2 16:39:32

zwylovezyj 3

2021-7-2 16:39:32

好快啊,下载了,谢谢!
回复 支持 反对

使用道具 举报

huan221 发表于 2021-7-2 17:01:04

huan221 4

2021-7-2 17:01:04

希望带字幕,这片子豆瓣和字幕网站都没搜到 ,感谢分享
回复 支持 反对

使用道具 举报

以酒会友 发表于 2021-7-2 19:26:43

以酒会友 5

2021-7-2 19:26:43

好电影!感谢分享
回复 支持 反对

使用道具 举报

maxzs 发表于 2021-7-2 19:50:59

maxzs 6

2021-7-2 19:50:59

英文字幕都不全
回复 支持 反对

使用道具 举报

sacdhao 发表于 2021-7-2 19:57:14

sacdhao 7

2021-7-2 19:57:14

海报血腥了。。。。
回复 支持 反对

使用道具 举报

huan221 发表于 2021-7-2 20:00:54

huan221 8

2021-7-2 20:00:54

非常遗憾的告诉大家没有字幕可用
回复 支持 反对

使用道具 举报

QQ_1C652F 发表于 2021-7-2 23:10:19

QQ_1C652F 9

2021-7-2 23:10:19

谢谢楼主无私分享
回复 支持 反对

使用道具 举报

bbgrnnji 发表于 2021-7-3 08:38:52

bbgrnnji 10

2021-7-3 08:38:52

感觉还是不错
回复 支持 反对

使用道具 举报

liyun80000 发表于 2021-7-3 10:07:43

liyun80000 11

2021-7-3 10:07:43

谢谢楼主分享
回复 支持 反对

使用道具 举报

lqy0500 发表于 2021-7-3 10:33:42

lqy0500 12

2021-7-3 10:33:42


谢谢楼主分享
回复 支持 反对

使用道具 举报

wezard112 发表于 2021-7-3 10:51:40

wezard112 13

2021-7-3 10:51:40

还没中文字幕,
回复 支持 反对

使用道具 举报

caoyu0922 发表于 2021-7-3 11:31:04

caoyu0922 14

2021-7-3 11:31:04

感谢楼主分享。
回复 支持 反对

使用道具 举报

blucesky 发表于 2021-7-3 12:27:37

blucesky 15

2021-7-3 12:27:37

感谢楼主分享
回复 支持 反对

使用道具 举报

grayxia 发表于 2021-7-3 12:33:13

grayxia 16

2021-7-3 12:33:13

感谢分享
回复 支持 反对

使用道具 举报

panbell 发表于 2021-7-3 15:44:02

panbell 17

2021-7-3 15:44:02

谢谢楼主无私分享
回复 支持 反对

使用道具 举报

aandrew830314 发表于 2021-7-3 16:12:39

aandrew830314 18

2021-7-3 16:12:39

更新中文字幕: 至死不渝.srt (40.77 KB)
回复 支持 反对

使用道具 举报

   发表回复

您需要登录后才可以回帖 登录 | 立即注册

返回列表 本版积分规则

  • 在线客服

  • 返回顶部