微博 微信

Hao4K影音

电影频道
电影封面:
片  名: 夏日之魂4k
电影分类: 纪录片 
国  家: 美国 
年  代: 2021年
分 辨 率: 4K(3840x2160)
电影格式: MKV|REMUX 
画质标准: 其他 
音质编码: Dolby Digital Plus Audio 
电影声道: 其他 
帧数/FPS: 23.976 帧
电影语言: 英文原版 
资源大小: 9.73 GB
导  演: 阿米尔-卡利布·汤普森
豆瓣评分:
中文字幕: -
剧情简介:  The Harlem Cultural Festival和著名的伍德斯托克音乐节在同一个夏天举行,超过30万人参加,但如此盛大的音乐节却鲜有主流媒体报道。该纪录片回顾了当时的盛况
夏日之魂4k Summer.of.Soul.Or.When.the.Revolution.Could.Not.Be.Televised.2021.2160p.WEB.H265-纪录片信息
  1. Video
  2. ID : 1
  3. Format : HEVC
  4. Format/Info : High Efficiency Video Coding
  5. Format profile : Main 10@L5@Main
  6. Codec ID : V_MPEGH/ISO/HEVC
  7. Duration : 1 h 57 min
  8. Bit rate : 11.2 Mb/s
  9. Width : 3 840 pixels
  10. Height : 2 160 pixels
  11. Display aspect ratio : 16:9
  12. Frame rate mode : Constant
  13. Frame rate : 23.976 (24000/1001) FPS
  14. Color space : YUV
  15. Chroma subsampling : 4:2:0
  16. Bit depth : 10 bits
  17. Bits/(Pixel*Frame) : 0.057
  18. Stream size : 9.23 GiB (96%)
  19. Default : Yes
  20. Forced : No

  21. Audio
  22. ID : 2
  23. Format : E-AC-3
  24. Format/Info : Enhanced AC-3
  25. Commercial name : Dolby Digital Plus
  26. Codec ID : A_EAC3
  27. Duration : 1 h 57 min
  28. Bit rate mode : Constant
  29. Bit rate : 256 kb/s
  30. Channel(s) : 6 channels
  31. Channel layout : L R C LFE Ls Rs
  32. Sampling rate : 48.0 kHz
  33. Frame rate : 31.250 FPS (1536 SPF)
  34. Compression mode : Lossy
  35. Stream size : 215 MiB (2%)
  36. Language : English
  37. Service kind : Complete Main
  38. Default : Yes
  39. Forced : No

  40. Text #1
  41. ID : 3
  42. Format : UTF-8
  43. Codec ID : S_TEXT/UTF8
  44. Codec ID/Info : UTF-8 Plain Text
  45. Title : English
  46. Language : English
  47. Default : No
  48. Forced : No

  49. Text #2
  50. ID : 4
  51. Format : UTF-8
  52. Codec ID : S_TEXT/UTF8
  53. Codec ID/Info : UTF-8 Plain Text
  54. Title : Spanish
  55. Language : Spanish
  56. Default : No
  57. Forced : No
复制代码
夏日之魂4k Summer.of.Soul.Or.When.the.Revolution.Could.Not.Be.Televised.2021.2160p.WEB.H265-纪录片下载
夏日之魂4k Summer.of.Soul.Or.When.the.Revolution.Could.Not.Be.Televised.2021.2160p.WEB.H265【9.73GB】
[Hao4k]夏日之魂4k Summer.of.Soul.Or.When.the.Revolution.Could.Not.Be.Televised.2.torrent (49.58 KB, 售价: 2 个K币)
回复

使用道具 举报

全部回复14

xxw8888 发表于 2021-7-2 18:43:26 Hao4K手机版

xxw8888 2

2021-7-2 18:43:26

谢谢分享
回复 支持 反对

使用道具 举报

wusongk 发表于 2021-7-2 18:54:32

wusongk 3

2021-7-2 18:54:32

谢谢楼主分享。
回复 支持 反对

使用道具 举报

a1234477ai 发表于 2021-7-2 19:43:37

a1234477ai 4

2021-7-2 19:43:37

很有参考价值。
回复 支持 反对

使用道具 举报

sacdhao 发表于 2021-7-2 19:55:28

sacdhao 5

2021-7-2 19:55:28

音乐盛况。。。。。
回复 支持 反对

使用道具 举报

ExtremeDS 发表于 2021-7-3 08:30:51

ExtremeDS 6

2021-7-3 08:30:51

感谢分享...........
回复 支持 反对

使用道具 举报

chlwql123 发表于 2021-7-3 10:05:20

chlwql123 7

2021-7-3 10:05:20


谢谢,大片
回复 支持 反对

使用道具 举报

meieat 发表于 2021-7-3 13:54:03

meieat 8

2021-7-3 13:54:03

谢谢分享
回复 支持 反对

使用道具 举报

panbell 发表于 2021-7-3 15:46:27

panbell 9

2021-7-3 15:46:27

谢谢楼主无私分享
回复 支持 反对

使用道具 举报

ywf6168 发表于 2021-7-3 16:21:27 Hao4K手机版

ywf6168 10

2021-7-3 16:21:27

感谢楼主分享
回复 支持 反对

使用道具 举报

dqxa 发表于 2021-7-3 18:48:06

dqxa 11

2021-7-3 18:48:06

不是4K,画质太差,完全是下载的电视节目。
回复 支持 反对

使用道具 举报

liyun80000 发表于 2021-7-4 11:24:12

liyun80000 12

2021-7-4 11:24:12

谢谢楼主分享
回复 支持 反对

使用道具 举报

zsad 发表于 2021-7-4 14:38:02

zsad 13

2021-7-4 14:38:02

感谢分享
回复 支持 反对

使用道具 举报

xelibri4 发表于 2021-7-5 17:08:35

xelibri4 14

2021-7-5 17:08:35

感谢分享
回复 支持 反对

使用道具 举报

mm770880 发表于 2021-7-5 21:42:33

mm770880 15

2021-7-5 21:42:33

感谢分享
回复 支持 反对

使用道具 举报

   发表回复

您需要登录后才可以回帖 登录 | 立即注册

返回列表 本版积分规则

  • 在线客服

  • 返回顶部