微博 微信

Hao4K影音

[4k其他视频] 中国共产党百年活动 七一勋章颁授仪式和七一庆祝大会和文艺晚会《伟大征程》

2021-7-5 18:47:27 35381 46 回帖奖励 |倒序浏览 |阅读模式

xxbhpan 帖主

2021-7-3 19:04:33

中国共产党百年活动 七一勋章颁授仪式和七一庆祝大会
本资源来源于私有PT站,无法分享种子,所以只能通过百度云盘和115网盘分享盘。
《伟大征程》文艺晚会10bit CCTV-4K 版本即将更新,敬请期待。


Qi.Yi.Xun.Zhang.Ban.Shou.Yi.Shi.20210629.2160p.CCTV-4K.UHDTV.HEVC.10bit.HDR.DD5.1-FLTTH
七一勋章颁授仪式 CCTV-4K HDR 50fps 33mbps AC3 5.1 视频信息
  1. General
  2. ID                             : 36 (0x24)
  3. Complete name                  : Qi.Yi.Xun.Zhang.Ban.Shou.Yi.Shi.20210629.2160p.CCTV-4K.UHDTV.HEVC.10bit.HDR.DD5.1-FLTTH.ts
  4. Format                         : MPEG-TS
  5. File size                      : 35.1 GiB
  6. Duration                       : 2 h 29 min
  7. Overall bit rate mode          : Variable
  8. Overall bit rate               : 33.7 Mb/s

  9. Video
  10. ID                             : 7010 (0x1B62)
  11. Menu ID                        : 701 (0x2BD)
  12. Format                         : HEVC
  13. Format/Info                    : High Efficiency Video Coding
  14. Format profile                 : Main 10@L5.1@Main
  15. Codec ID                       : 36
  16. Duration                       : 2 h 29 min
  17. Bit rate                       : 31.6 Mb/s
  18. Width                          : 3 840 pixels
  19. Height                         : 2 160 pixels
  20. Display aspect ratio           : 16:9
  21. Frame rate                     : 50.000 FPS
  22. Standard                       : Component
  23. Color space                    : YUV
  24. Chroma subsampling             : 4:2:0 (Type 2)
  25. Bit depth                      : 10 bits
  26. Bits/(Pixel*Frame)             : 0.076
  27. Stream size                    : 32.9 GiB (94%)
  28. Encryption                     : Encrypted
  29. Color range                    : Limited
  30. Color primaries                : BT.2020
  31. Transfer characteristics       : HLG / BT.2020 (10-bit)
  32. Matrix coefficients            : BT.2020 non-constant

  33. Audio
  34. ID                             : 7011 (0x1B63)
  35. Menu ID                        : 701 (0x2BD)
  36. Format                         : AC-3
  37. Format/Info                    : Audio Coding 3
  38. Commercial name                : Dolby Digital
  39. Codec ID                       : 6
  40. Duration                       : 2 h 29 min
  41. Bit rate mode                  : Constant
  42. Bit rate                       : 448 kb/s
  43. Channel(s)                     : 6 channels
  44. Channel layout                 : L R C LFE Ls Rs
  45. Sampling rate                  : 48.0 kHz
  46. Frame rate                     : 31.250 FPS (1536 SPF)
  47. Compression mode               : Lossy
  48. Delay relative to video        : -62 ms
  49. Stream size                    : 478 MiB (1%)
  50. Service kind                   : Complete Main
  51. Encryption                     : Encrypted

  52. Menu
  53. ID                             : 7015 (0x1B67)
  54. Menu ID                        : 701 (0x2BD)
  55. Duration                       : 2 h 29 min
  56. List                           : 7010 (0x1B62) (HEVC) / 7011 (0x1B63) (AC-3)
  57. Service name                   : CCTV-4K超高清
  58. Service provider               : BGCTV
  59. Service type                   : user defined
复制代码

百度网盘 链接: https://pan.baidu.com/s/1bhcOKfRxnttnUvfL5ATraQ  提取码:ainm
115网盘 链接: https://115.com/s/swninlk3613    访问码:m989


20210629.CCTV-1HD.庆祝中国共产党成立100周年七一勋章颁授仪式.1080p.AVS+.AC3
七一勋章颁授仪式 CCTV-1 CAVS 1080i50 AC3 5.1 视频(央视直播源码),该视频采用AVS+编码,需要AVS+解码或播放器
百度网盘 链接: https://pan.baidu.com/s/1znhpgVjgr53bgDUQXJHWCA  提取码:jt1f
115网盘 链接: https://115.com/s/swninsm3613    访问码:n144 (该内容经过115审核违规,暂停分享,抱歉

魔改后支持AVS+ 解码的VLC播放器便携版 115网盘 链接: https://115.com/s/swn7cag3613  访问码:a1c6 (内含原文件包和zip压缩文件,百度网盘无法分享该文件)
gitee论坛上有大神搭建了AVS AVS2(即CAVS或AVS+) AVS3的播放器,但由于AVS2目前不支持10bits的视频所以无法播放,感兴趣的大神可以自我尝试一下,下面是他的链接:https://gitee.com/zhengtianbo



CCTV4 The Celebration of the 100th Anniversary of the Founding of the Communist Party of China 20210701 HDTV 1080i H264-FLTTH
七一庆祝大会 CCTV-4 HD 1080i50 AC3 5.1 电视录制源码 视频信息(央视并未4K直播庆祝大会,但有8K留底,应该会在CCTV-8K播出)
  1. General
  2. ID                             : 22 (0x16)
  3. Complete name                  : CCTV4 The Celebration of the 100th Anniversary of the Founding of the Communist Party of China 20210701 HDTV 1080i H264-FLTTH.ts
  4. Format                         : MPEG-TS
  5. File size                      : 10.2 GiB
  6. Duration                       : 2 h 1 min
  7. Overall bit rate mode          : Variable
  8. Overall bit rate               : 12.0 Mb/s

  9. Video
  10. ID                             : 514 (0x202)
  11. Menu ID                        : 853 (0x355)
  12. Format                         : AVC
  13. Format/Info                    : Advanced Video Codec
  14. Format profile                 : High@L4.1
  15. Format settings                : CABAC / 4 Ref Frames
  16. Format settings, CABAC         : Yes
  17. Format settings, Reference fra : 4 frames
  18. Format settings, GOP           : M=4, N=24
  19. Codec ID                       : 27
  20. Duration                       : 1 h 39 min
  21. Bit rate                       : 10.9 Mb/s
  22. Maximum bit rate               : 11.5 Mb/s
  23. Width                          : 1 920 pixels
  24. Height                         : 1 080 pixels
  25. Display aspect ratio           : 16:9
  26. Frame rate                     : 25.000 FPS
  27. Color space                    : YUV
  28. Chroma subsampling             : 4:2:0
  29. Bit depth                      : 8 bits
  30. Scan type                      : Interlaced
  31. Scan type, store method        : Separated fields
  32. Scan order                     : Top Field First
  33. Bits/(Pixel*Frame)             : 0.211
  34. Stream size                    : 7.58 GiB (74%)
  35. Color range                    : Limited
  36. Color primaries                : BT.709
  37. Transfer characteristics       : BT.709
  38. Matrix coefficients            : BT.709

  39. Audio
  40. ID                             : 670 (0x29E)
  41. Menu ID                        : 853 (0x355)
  42. Format                         : AC-3
  43. Format/Info                    : Audio Coding 3
  44. Commercial name                : Dolby Digital
  45. Codec ID                       : 6
  46. Duration                       : 2 h 1 min
  47. Bit rate mode                  : Constant
  48. Bit rate                       : 448 kb/s
  49. Channel(s)                     : 6 channels
  50. Channel layout                 : L R C LFE Ls Rs
  51. Sampling rate                  : 48.0 kHz
  52. Frame rate                     : 31.250 FPS (1536 SPF)
  53. Compression mode               : Lossy
  54. Delay relative to video        : -1 s 436 ms
  55. Stream size                    : 391 MiB (4%)
  56. Language                       : English
  57. Service kind                   : Complete Main

  58. Menu
  59. ID                             : 258 (0x102)
  60. Menu ID                        : 853 (0x355)
  61. Duration                       : 2 h 1 min
  62. List                           : 514 (0x202) (AVC) / 670 (0x29E) (AC-3, English)
  63. Language                       :  / English
  64. Maximum bit rate               : 11948400
复制代码

百度网盘链接  链接: https://pan.baidu.com/s/1JSEJ0Kg0f1_cWe0FNPjicQ  提取码:01ir
115网盘 链接: https://115.com/s/swninsl3613 访问码:k4c5 (该内容经过115审核违规,暂停分享,抱歉



CCTV-4K 庆祝成立100周年大型情景史诗—《伟大征程》(Hao4K站内已有资源)
庆祝中国共产党成立100周年大会 CCTV4K 2160P/HEVC/50帧/5.1声道/26G/百度网盘
视频信息:
  1. General
  2. ID                             : 45 (0x2D)
  3. Complete name                  : CTV-4K.EPIC.JOURNEY.A.Celebration.of.the.CPCs.Centenary.20210701.2160p.UHDTV.HEVC.10bit.HDR.MPEG-iLoveTV.ts
  4. Format                         : MPEG-TS
  5. File size                      : 29.2 GiB
  6. Duration                       : 2 h 5 min
  7. Overall bit rate mode          : Variable
  8. Overall bit rate               : 33.3 Mb/s

  9. Video
  10. ID                             : 1012 (0x3F4)
  11. Menu ID                        : 4501 (0x1195)
  12. Format                         : HEVC
  13. Format/Info                    : High Efficiency Video Coding
  14. Format profile                 : Main 10@L5@High
  15. Codec ID                       : 36
  16. Duration                       : 2 h 5 min
  17. Bit rate                       : 31.2 Mb/s
  18. Width                          : 3 840 pixels
  19. Height                         : 2 160 pixels
  20. Display aspect ratio           : 16:9
  21. Frame rate                     : 50.000 FPS
  22. Standard                       : Component
  23. Color space                    : YUV
  24. Chroma subsampling             : 4:2:0 (Type 0)
  25. Bit depth                      : 8 bits
  26. Bits/(Pixel*Frame)             : 0.075
  27. Stream size                    : 27.3 GiB (94%)
  28. Color range                    : Limited
  29. Color primaries                : BT.2020
  30. Transfer characteristics       : HLG
  31. Matrix coefficients            : BT.2020 non-constant

  32. Audio
  33. ID                             : 1013 (0x3F5)
  34. Menu ID                        : 4501 (0x1195)
  35. Format                         : AC-3
  36. Format/Info                    : Audio Coding 3
  37. Commercial name                : Dolby Digital
  38. Codec ID                       : 6
  39. Duration                       : 2 h 5 min
  40. Bit rate mode                  : Constant
  41. Bit rate                       : 448 kb/s
  42. Channel(s)                     : 6 channels
  43. Channel layout                 : L R C LFE Ls Rs
  44. Sampling rate                  : 48.0 kHz
  45. Frame rate                     : 31.250 FPS (1536 SPF)
  46. Compression mode               : Lossy
  47. Delay relative to video        : -300 ms
  48. Stream size                    : 401 MiB (1%)
  49. Service kind                   : Complete Main

  50. Menu
  51. ID                             : 1010 (0x3F2)
  52. Menu ID                        : 4501 (0x1195)
  53. Duration                       : 2 h 5 min
  54. List                           : 1012 (0x3F4) (HEVC) / 1013 (0x3F5) (AC-3)
  55. Service name                   : CCTV4K超高清
  56. Service type                   : digital television
复制代码


8bit Hao4K站内链接:https://www.hao4k.cn/thread-59036-1-1.html
8bit 百度网盘链接  链接: https://pan.baidu.com/s/13wZL2g_gB6s-A-kqLQyqbA 提取码: ypfr
8bit 115网盘 链接: https://115.com/s/swnih6v3613?password=ra90   访问码:ra90
再次提醒,这个文件是要一起解压的,一共要下载完两个文件

补充内容 (2021-7-9 13:52):片子开头有25秒左右无声音,片尾有一小段无声音,属于正常现象
《伟大征程》10bit (如果无法解压可以试试这个链接)  
链接:https://pan.baidu.com/s/1sx2SvWb3f5HdVQMjHATP3A   
提取码:r45m  (永久有效)

免费评分

参与人数 1H币 +2 收起 理由
K18749194954 + 2 谢谢楼主分享!

查看全部评分

回复

使用道具 举报

全部回复46

xxbhpan 发表于 2021-7-5 15:50:55

xxbhpan 来自 16楼

2021-7-5 15:50:55

草,115屏蔽了2个我分享的链接,草(分别是第二个、第三个和第四个的10bit版本)   
七一勋章颁授仪式 选第一个,习大大演讲和庆祝大会 选第三个,晚会直播《伟大征程》 选第四个。   
《伟大征程》文艺晚会10bit CCTV-4K 版本百度网盘已更新,115网盘屏蔽了我的链接。         
《伟大征程》文艺晚会8bit和10bit CCTV-4K 版本在百度网盘全部下载好后,一起解压。   
10bit版本的片子开头有25秒左右无声音,片尾有一小段无声音,属于正常现象。   

回复 支持 反对

使用道具 举报

xxbhpan 发表于 2021-7-7 12:49:15

xxbhpan 推荐

2021-7-7 12:49:15


10bit的百度网盘链接已经有了  《伟大征程》10bit   
链接:https://pan.baidu.com/s/1sx2SvWb3f5HdVQMjHATP3A   提取码:r45m  (永久有效)


回复 支持 1 反对 0

使用道具 举报

xxbhpan 发表于 2021-7-6 16:27:01

xxbhpan 推荐

2021-7-6 16:27:01

whyme 发表于 2021-7-6 10:00
伟大征程那个下载了用potplayer观看,色彩会有偏差,有解决办法吗?

目测您的问题应该是Potplayer渲染HDR视频颜色错误的问题,您可以参考论坛的相关教程解决该问题   https://www.hao4k.cn/thread-9349-1-1.html  (使用madVR渲染方法)或者是  https://www.hao4k.cn/thread-56605-1-1.html  (简单方法),或者使用像VLCSMPlayer(拥有良好的HDR到SDR转换,占用系统资源少),KODI、MPC-BE或者是win10自带的电影和电视(如果电脑显示器不支持HDR,可能会出现过爆的现象)来进行播放。
另外,《伟大征程》文艺晚会10bit CCTV-4K 版本已更新。也许10bit的文件没有这种问题。
回复 支持 1 反对 0

使用道具 举报

qiqilele 发表于 2021-7-3 20:10:02

qiqilele 2

2021-7-3 20:10:02

这个好
等了好久了
回复 支持 反对

使用道具 举报

xxbhpan 发表于 2021-7-3 20:11:00

xxbhpan 3

2021-7-3 20:11:00

qiqilele 发表于 2021-7-3 20:10
这个好
等了好久了

感谢支持,这也是我在站外的PT站里下载回来的
回复 支持 反对

使用道具 举报

guoming 发表于 2021-7-3 20:32:37

guoming 4

2021-7-3 20:32:37

这个不错,下载看看,谢谢分享!
回复 支持 反对

使用道具 举报

lishiyuyu 发表于 2021-7-3 22:56:42

lishiyuyu 5

2021-7-3 22:56:42

能 有4k资源更好了  谢谢大神
回复 支持 反对

使用道具 举报

豪肆 发表于 2021-7-4 05:41:26

豪肆 6

2021-7-4 05:41:26

CCTV-8K …… 开始收藏 8K 了么……(话说……什么才会有公开的直播源)
回复 支持 反对

使用道具 举报

samsunglong 发表于 2021-7-4 08:33:02

samsunglong 7

2021-7-4 08:33:02

非常期待
回复 支持 反对

使用道具 举报

xxbhpan 发表于 2021-7-4 10:52:24

xxbhpan 8

2021-7-4 10:52:24

豪肆 发表于 2021-7-4 05:41
CCTV-8K …… 开始收藏 8K 了么……(话说……什么才会有公开的直播源)

今年下半年开始传输CCTV-8K,公开的直播源(亚太五号的卫星直播源)没有人去录制,所以就没有。
回复 支持 反对

使用道具 举报

sinomanic 发表于 2021-7-4 14:42:09

sinomanic 9

2021-7-4 14:42:09

我到底应该下载哪个呢?
回复 支持 反对

使用道具 举报

xxbhpan 发表于 2021-7-4 16:04:06

xxbhpan 10

2021-7-4 16:04:06

sinomanic 发表于 2021-7-4 14:42
我到底应该下载哪个呢?

七一勋章颁授仪式 选第一个,习大大演讲和庆祝大会 选第三个,晚会直播《伟大征程》 选第四个(是个链接,Hao4K已发)。
回复 支持 反对

使用道具 举报

ladysun 发表于 2021-7-4 16:46:34

ladysun 11

2021-7-4 16:46:34

什么时候能下载4K版,很期待!
回复 支持 反对

使用道具 举报

roporopo 发表于 2021-7-4 22:01:44

roporopo 12

2021-7-4 22:01:44

有没有115的版本?百度没会员
回复 支持 反对

使用道具 举报

xxbhpan 发表于 2021-7-4 22:41:50

xxbhpan 13

2021-7-4 22:41:50

roporopo 发表于 2021-7-4 22:01
有没有115的版本?百度没会员

额,我115没有会员,等等吧,明天应该会有115的链接,其他网盘链接我就不做了
回复 支持 反对

使用道具 举报

eyou 发表于 2021-7-5 08:54:46

eyou 14

2021-7-5 08:54:46

为楼主点赞!
回复 支持 反对

使用道具 举报

xxbhpan 发表于 2021-7-5 14:29:06

xxbhpan 15

2021-7-5 14:29:06

roporopo 发表于 2021-7-4 22:01
有没有115的版本?百度没会员

都有了,除了第二个和第三个被115屏蔽了链接,但是1080P的,要下载七一勋章颁授仪式就下载第一个就好了
回复 支持 反对

使用道具 举报

superwei4302 发表于 2021-7-5 16:29:08

superwei4302 17

2021-7-5 16:29:08

《伟大征程》这个文件太大了,没法播放。请问大家 这个用什么播放器播放呀?
回复 支持 反对

使用道具 举报

xxbhpan 发表于 2021-7-5 18:47:27

xxbhpan 18

2021-7-5 18:47:27

superwei4302 发表于 2021-7-5 16:29
《伟大征程》这个文件太大了,没法播放。请问大家 这个用什么播放器播放呀?

这个文件是要一起解压的,一共要下载完两个文件。下载没有问题的话,推荐使用像VLC、Potplayer、SMPlayer,KODI、MPC-BE或者是win10自带的电影和电视也可以。
回复 支持 反对

使用道具 举报

   发表回复

您需要登录后才可以回帖 登录 | 立即注册

返回列表 本版积分规则

:
青铜玩家
:
未填写

主题

帖子

积分204

  • 在线客服

  • 返回顶部