微博 微信

Hao4K影音

电视剧频道
电视剧封面:
电视剧名: 狄金森 第一季4k
年  代: 2019  
国  家: 美国
类  别: 剧情 喜剧 传记 
语  言: 英语
字  幕: 英文原版
上映日期: 2019-11-01
文件格式: mkv    
视频效果: 4K(3840x2160)    
资源大小: 52.33 GB
片  长: 30 分钟
导  演: 史黛西·帕松 / 大卫·戈登·格林 / 西拉斯·霍华德 / 琳·谢尔顿 / 帕特里克·R·诺里斯
剧情简介: Apple订购半小时剧集《狄金森》(Dickinson,暂译),该剧由海莉·斯坦菲尔德主演,她将在剧中扮演二十世纪现代主义诗歌先驱之一艾米莉·狄金森。阿莲娜·史密斯(《婚外情事》)编剧,大卫·戈登·格林执导。剧集将设定在艾米莉·狄金森生活的时代,故事围绕狄金森家庭,她自我创造诗歌的历程等展开。剧集也将见证狄金森个人的成长过程。
狄金森的诗生活(港) / 狄金生(台)/狄金森 第一季4k Dickinson.S01.2160p.ATVP.WEB-DL.DDP5.1.Atmos.DV.x265-4k杜比视界美剧信息
  1. Video
  2. ID : 1
  3. Format : HEVC
  4. Format/Info : High Efficiency Video Coding
  5. Format profile : Main 10@L5@High
  6. HDR format : Dolby Vision, Version 1.0, dvhe.05.06, BL+RPU
  7. Codec ID : dvhe
  8. Codec ID/Info : High Efficiency Video Coding with Dolby Vision
  9. Duration : 34 min 57 s
  10. Bit rate : 24.5 Mb/s
  11. Width : 3 840 pixels
  12. Height : 2 160 pixels
  13. Display aspect ratio : 16:9
  14. Frame rate mode : Constant
  15. Frame rate : 23.976 (23976/1000) FPS
  16. Color space : YUV
  17. Chroma subsampling : 4:2:0
  18. Bit depth : 10 bits
  19. Bits/(Pixel*Frame) : 0.123
  20. Stream size : 5.97 GiB (97%)
  21. Default : Yes
  22. Alternate group : 1
  23. Encoded date : UTC 2021-06-12 02:49:12
  24. Tagged date : UTC 2021-06-12 02:49:56
  25. Codec configuration box : hvcC+dvcC

  26. Audio
  27. ID : 2
  28. Format : E-AC-3 JOC
  29. Format/Info : Enhanced AC-3 with Joint Object Coding
  30. Commercial name : Dolby Digital Plus with Dolby Atmos
  31. Codec ID : ec-3
  32. Duration : 34 min 57 s
  33. Bit rate mode : Constant
  34. Bit rate : 768 kb/s
  35. Maximum bit rate : 811 kb/s
  36. Channel(s) : 6 channels
  37. Channel layout : L R C LFE Ls Rs
  38. Sampling rate : 48.0 kHz
  39. Frame rate : 31.250 FPS (1536 SPF)
  40. Compression mode : Lossy
  41. Stream size : 192 MiB (3%)
  42. Title : English
  43. Language : English
  44. Service kind : Complete Main
  45. Encoded date : UTC 2021-06-12 02:48:47
  46. Tagged date : UTC 2021-06-12 02:49:56
  47. Complexity index : Not present / 16
  48. Number of dynamic objects : 15
  49. Bed channel count : 1 channel
  50. Bed channel configuration : LFE

  51. Text #1
  52. ID : 3
  53. Format : Timed Text
  54. Codec ID : tx3g
  55. Duration : 33 min 44 s
  56. Bit rate mode : Variable
  57. Bit rate : 72 b/s
  58. Stream size : 17.7 KiB (0%)
  59. Title : English
  60. Language : English
  61. Forced : No
  62. Encoded date : UTC 2021-06-12 02:49:52
  63. Tagged date : UTC 2021-06-12 02:49:56

  64. Text #2
  65. ID : 4
  66. Format : Timed Text
  67. Codec ID : tx3g
  68. Duration : 34 min 56 s
  69. Bit rate mode : Variable
  70. Bit rate : 98 b/s
  71. Stream size : 25.0 KiB (0%)
  72. Language : Arabic
  73. Forced : No
  74. Encoded date : UTC 2021-06-12 02:49:52
  75. Tagged date : UTC 2021-06-12 02:49:56

  76. Text #3
  77. ID : 5
  78. Format : Timed Text
  79. Codec ID : tx3g
  80. Duration : 34 min 56 s
  81. Bit rate mode : Variable
  82. Bit rate : 98 b/s
  83. Stream size : 25.1 KiB (0%)
  84. Language : Bulgarian
  85. Forced : No
  86. Encoded date : UTC 2021-06-12 02:49:52
  87. Tagged date : UTC 2021-06-12 02:49:56

  88. Text #4
  89. ID : 6
  90. Format : Timed Text
  91. Codec ID : tx3g
  92. Duration : 34 min 56 s
  93. Bit rate mode : Variable
  94. Bit rate : 64 b/s
  95. Stream size : 16.4 KiB (0%)
  96. Language : cmn
  97. Forced : No
  98. Encoded date : UTC 2021-06-12 02:49:52
  99. Tagged date : UTC 2021-06-12 02:49:56

  100. Text #5
  101. ID : 7
  102. Format : Timed Text
  103. Codec ID : tx3g
  104. Duration : 34 min 56 s
  105. Bit rate mode : Variable
  106. Bit rate : 64 b/s
  107. Stream size : 16.3 KiB (0%)
  108. Language : cmn
  109. Forced : No
  110. Encoded date : UTC 2021-06-12 02:49:52
  111. Tagged date : UTC 2021-06-12 02:49:56
复制代码

狄金森的诗生活(港) / 狄金生(台)/狄金森 第一季4k Dickinson.S01.2160p.ATVP.WEB-DL.DDP5.1.Atmos.DV.x265-4k杜比视界美剧下载

狄金森 第一季4k Dickinson.S01.2160p.ATVP.WEB-DL.DDP5.1.Atmos.DV.x265【52.33GB】
[Hao4k]狄金森 第一季4k Dickinson.S01.2160p.ATVP.WEB-DL.DDP5.1.Atmos.DV.x265-FLUX.torrent (132.59 KB)
回复

使用道具 举报

全部回复1

yangly 发表于 2021-7-5 15:34:21

yangly 2

2021-7-5 15:34:21

2季已经下载,不错,谢谢分享好资源
回复 支持 反对

使用道具 举报

   发表回复

您需要登录后才可以回帖 登录 | 立即注册

返回列表 本版积分规则

  • 在线客服

  • 返回顶部