微博 微信

Hao4K影音

电影频道
电影封面:
片  名: 闪电舞4k
电影分类: 剧情 爱情片 其他 
国  家: 美国 
年  代: 80年代
分 辨 率: 4K(3840x2160)
电影格式: MKV|REMUX 
画质标准: HDR10 
音质编码: DTS-HD Master Audio 
电影声道: 5.1声道 
帧数/FPS: 23.976 帧
电影语言: 英文原版 
资源大小: 12.70 GB
导  演: 阿德里安·莱恩
豆瓣评分: 7.7 分
中文字幕: -
剧情简介: 18岁的亚莉克欧文斯对舞蹈有一份狂爱,由于现实生活的压力,白天在一家铁工厂担任焊工,晚上在当地一家酒吧演出,全片刻画亚莉克追求理想、独立与爱情的奋斗过程。 主题曲由艾伦卡拉主唱,支支动听,舞曲风靡全球。
闪舞 / 劲舞/闪电舞4k Flashdance.1983.2160p.AMZN.WEB-DL.x265.10bit.HDR.DTS-HD.MA.5.1-4k电影信息
  1. Video
  2. ID : 1
  3. Format : HEVC
  4. Format/Info : High Efficiency Video Coding
  5. Format profile : Main 10@L5@Main
  6. HDR format : SMPTE ST 2094 App 4, Version 0, HDR10 compatible
  7. Codec ID : V_MPEGH/ISO/HEVC
  8. Duration : 1 h 34 min
  9. Bit rate : 14.9 Mb/s
  10. Width : 3 840 pixels
  11. Height : 2 160 pixels
  12. Display aspect ratio : 16:9
  13. Frame rate mode : Constant
  14. Frame rate : 23.976 (24000/1001) FPS
  15. Standard : NTSC
  16. Color space : YUV
  17. Chroma subsampling : 4:2:0 (Type 2)
  18. Bit depth : 10 bits
  19. Bits/(Pixel*Frame) : 0.075
  20. Stream size : 9.87 GiB (78%)
  21. Default : Yes
  22. Forced : No
  23. Color range : Limited
  24. Color primaries : BT.2020
  25. Transfer characteristics : PQ
  26. Matrix coefficients : BT.2020 non-constant
  27. Mastering display color primaries : Display P3
  28. Mastering display luminance : min: 0.0001 cd/m2, max: 1000 cd/m2
  29. Maximum Content Light Level : 1000 cd/m2
  30. Maximum Frame-Average Light Level : 131 cd/m2

  31. Audio #1
  32. ID : 2
  33. ID in the original source medium : 4352 (0x1100)
  34. Format : DTS XLL
  35. Format/Info : Digital Theater Systems
  36. Commercial name : DTS-HD Master Audio
  37. Codec ID : A_DTS
  38. Duration : 1 h 34 min
  39. Bit rate mode : Variable
  40. Bit rate : 3 607 kb/s
  41. Channel(s) : 6 channels
  42. Channel layout : C L R Ls Rs LFE
  43. Sampling rate : 48.0 kHz
  44. Frame rate : 93.750 FPS (512 SPF)
  45. Bit depth : 24 bits
  46. Compression mode : Lossless
  47. Stream size : 2.39 GiB (19%)
  48. Title : DTS-HD MA 5.1
  49. Language : English
  50. Default : Yes
  51. Forced : No
  52. Original source medium : Blu-ray

  53. Audio #2
  54. ID : 3
  55. Format : E-AC-3
  56. Format/Info : Enhanced AC-3
  57. Commercial name : Dolby Digital Plus
  58. Codec ID : A_EAC3
  59. Duration : 1 h 34 min
  60. Bit rate mode : Constant
  61. Bit rate : 640 kb/s
  62. Channel(s) : 6 channels
  63. Channel layout : L R C LFE Ls Rs
  64. Sampling rate : 48.0 kHz
  65. Frame rate : 31.250 FPS (1536 SPF)
  66. Compression mode : Lossy
  67. Stream size : 433 MiB (3%)
  68. Title : DDP 5.1
  69. Language : English
  70. Service kind : Complete Main
  71. Default : No
  72. Forced : No

  73. Text #1
  74. ID : 4
  75. Format : UTF-8
  76. Codec ID : S_TEXT/UTF8
  77. Codec ID/Info : UTF-8 Plain Text
  78. Duration : 1 h 32 min
  79. Bit rate : 31 b/s
  80. Count of elements : 944
  81. Stream size : 21.6 KiB (0%)
  82. Title : English
  83. Language : English
  84. Default : Yes
  85. Forced : No

  86. Text #2
  87. ID : 5
  88. Format : UTF-8
  89. Codec ID : S_TEXT/UTF8
  90. Codec ID/Info : UTF-8 Plain Text
  91. Duration : 1 h 33 min
  92. Bit rate : 43 b/s
  93. Count of elements : 1260
  94. Stream size : 29.9 KiB (0%)
  95. Title : English [SDH]
  96. Language : English
  97. Default : No
  98. Forced : No

  99. Text #3
  100. ID : 6
  101. ID in the original source medium : 4608 (0x1200)
  102. Format : PGS
  103. Muxing mode : zlib
  104. Codec ID : S_HDMV/PGS
  105. Codec ID/Info : Picture based subtitle format used on BDs/HD-DVDs
  106. Duration : 1 h 23 min
  107. Bit rate : 24.3 kb/s
  108. Count of elements : 1450
  109. Stream size : 14.6 MiB (0%)
  110. Language : English
  111. Default : No
  112. Forced : No
  113. Original source medium : Blu-ray

  114. Text #4
  115. ID : 7
  116. ID in the original source medium : 4609 (0x1201)
  117. Format : PGS
  118. Muxing mode : zlib
  119. Codec ID : S_HDMV/PGS
  120. Codec ID/Info : Picture based subtitle format used on BDs/HD-DVDs
  121. Duration : 1 h 33 min
  122. Bit rate : 32.4 kb/s
  123. Count of elements : 1791
  124. Stream size : 21.7 MiB (0%)
  125. Language : English
  126. Default : No
  127. Forced : No
  128. Original source medium : Blu-ray

  129. Text #5
  130. ID : 8
  131. ID in the original source medium : 4610 (0x1202)
  132. Format : PGS
  133. Muxing mode : zlib
  134. Codec ID : S_HDMV/PGS
  135. Codec ID/Info : Picture based subtitle format used on BDs/HD-DVDs
  136. Duration : 1 h 31 min
  137. Bit rate : 21.0 kb/s
  138. Count of elements : 1460
  139. Stream size : 13.8 MiB (0%)
  140. Language : French
  141. Default : No
  142. Forced : No
  143. Original source medium : Blu-ray

  144. Menu
  145. 00:00:00.000 : Chapter 01
  146. 00:03:49.270 : Chapter 02
  147. 00:11:29.271 : Chapter 03
  148. 00:24:33.972 : Chapter 04
  149. 00:25:54.052 : Chapter 05
  150. 00:29:32.937 : Chapter 06
  151. 00:33:04.273 : Chapter 07
  152. 00:39:28.491 : Chapter 08
  153. 00:44:20.824 : Chapter 09
  154. 00:47:52.119 : Chapter 10
  155. 00:51:58.615 : Chapter 11
  156. 00:55:17.772 : Chapter 12
  157. 01:02:13.813 : Chapter 13
  158. 01:05:59.956 : Chapter 14
  159. 01:14:23.750 : Chapter 15
  160. 01:18:29.996 : Chapter 16
  161. 01:24:55.799 : Chapter 17
  162. 01:29:59.894 : Chapter 18
复制代码

闪舞 / 劲舞/闪电舞4k Flashdance.1983.2160p.AMZN.WEB-DL.x265.10bit.HDR.DTS-HD.MA.5.1-4k电影下载
闪电舞4k Flashdance.1983.2160p.AMZN.WEB-DL.x265.10bit.HDR.DTS-HD.MA.5.1【12.70GB】
[Hao4k]闪电舞4k Flashdance.1983.2160p.AMZN.WEB-DL.x265.10bit.HDR.DTS-HD.MA.5.1-S.torrent (16.54 KB)
回复

使用道具 举报

全部回复13

dqxa 发表于 2021-7-10 21:31:03

dqxa 2

2021-7-10 21:31:03

非常喜欢影片中的音乐。
回复 支持 1 反对 0

使用道具 举报

gangan2008 发表于 2021-7-10 23:12:09

gangan2008 3

2021-7-10 23:12:09

没看过,好看吗?
回复 支持 反对

使用道具 举报

珊瑚坝放风筝 发表于 2021-7-11 18:22:47

珊瑚坝放风筝 4

2021-7-11 18:22:47

谢谢楼主分享,洗版...
回复 支持 反对

使用道具 举报

dyczw 发表于 2021-7-12 06:24:38

dyczw 5

2021-7-12 06:24:38

看海报还不错,不知道好不好看,谢谢分享了!
回复 支持 反对

使用道具 举报

福星高高照 发表于 2021-7-12 11:26:06

福星高高照 6

2021-7-12 11:26:06


很好看
回复 支持 反对

使用道具 举报

lenglengxi 发表于 2021-7-13 14:27:09

lenglengxi 8

2021-7-13 14:27:09

好看好看~~
回复 支持 反对

使用道具 举报

HSSWWH1969 发表于 2021-7-14 15:28:11

HSSWWH1969 9

2021-7-14 15:28:11

谢谢老大,辛苦!
回复 支持 反对

使用道具 举报

红楼梦 发表于 2021-7-17 21:59:25

红楼梦 10

2021-7-17 21:59:25

特别怀念的片子。
回复 支持 反对

使用道具 举报

aftok123 发表于 2021-7-19 12:21:38

aftok123 11

2021-7-19 12:21:38

感谢分享 免费的
回复 支持 反对

使用道具 举报

wriking13 发表于 2021-7-20 16:08:53

wriking13 12

2021-7-20 16:08:53

感谢分享。。。
回复 支持 反对

使用道具 举报

zxk262411 发表于 2021-7-22 11:22:44

zxk262411 13

2021-7-22 11:22:44

这部电影OST甚至比片子更有名
回复 支持 反对

使用道具 举报

你条粉肠 发表于 6 天前

你条粉肠 14

6 天前

没看过,好看吗?
回复 支持 反对

使用道具 举报

   发表回复

您需要登录后才可以回帖 登录 | 立即注册

返回列表 本版积分规则

  • 在线客服

  • 返回顶部