微博 微信

Hao4K影音

电影频道
电影封面:
片  名: 拜见布莱克一家2:邻家有鬼4k
电影分类: 动作 恐怖 喜剧 
国  家: 美国 
年  代: 2021年
分 辨 率: 4K(3840x2160)
电影格式: MKV|REMUX 
画质标准: SDR 
音质编码: 其他DD 
电影声道: 5.1声道 
帧数/FPS: 23.976 帧
电影语言: 英文原版 
资源大小: 8.45 GB
导  演: 德翁·泰勒
豆瓣评分: 0 分
中文字幕: -
剧情简介: When best selling author Carl Black moves his family back to his childhood home, he must team up with oddball neighbors to do battle with a pimp, who may or may not be an actual vampire.
Meet The Blacks 2/拜见布莱克一家2:邻家有鬼4k The.House.Next.Door.2021.2160p.WEB-DL.x265.10bit.SDR.DD5.1-4k电影信息
  1. Video
  2. ID : 1
  3. Format : HEVC
  4. Format/Info : High Efficiency Video Coding
  5. Format profile : Main 10@L5@High
  6. Codec ID : V_MPEGH/ISO/HEVC
  7. Duration : 1 h 37 min
  8. Bit rate : 12.0 Mb/s
  9. Width : 3 832 pixels
  10. Height : 1 596 pixels
  11. Display aspect ratio : 2.40:1
  12. Frame rate mode : Constant
  13. Frame rate : 23.976 FPS
  14. Color space : YUV
  15. Chroma subsampling : 4:2:0
  16. Bit depth : 10 bits
  17. Bits/(Pixel*Frame) : 0.082
  18. Stream size : 8.18 GiB (97%)
  19. Language : English
  20. Default : Yes
  21. Forced : No
  22. Color range : Limited
  23. Color primaries : BT.709
  24. Transfer characteristics : BT.709
  25. Matrix coefficients : BT.709

  26. Audio
  27. ID : 2
  28. Format : AC-3
  29. Format/Info : Audio Coding 3
  30. Commercial name : Dolby Digital
  31. Codec ID : A_AC3
  32. Duration : 1 h 37 min
  33. Bit rate mode : Constant
  34. Bit rate : 384 kb/s
  35. Channel(s) : 6 channels
  36. Channel layout : L R C LFE Ls Rs
  37. Sampling rate : 48.0 kHz
  38. Frame rate : 31.250 FPS (1536 SPF)
  39. Compression mode : Lossy
  40. Stream size : 267 MiB (3%)
  41. Title : English
  42. Language : English
  43. Service kind : Complete Main
  44. Default : No
  45. Forced : No

  46. Text
  47. ID : 3
  48. Format : UTF-8
  49. Codec ID : S_TEXT/UTF8
  50. Codec ID/Info : UTF-8 Plain Text
  51. Duration : 1 h 34 min
  52. Bit rate : 95 b/s
  53. Count of elements : 1860
  54. Stream size : 66.2 KiB (0%)
  55. Language : English
  56. Default : Yes
  57. Forced : No
复制代码

Meet The Blacks 2/拜见布莱克一家2:邻家有鬼4k The.House.Next.Door.2021.2160p.WEB-DL.x265.10bit.SDR.DD5.1-4k电影下载

拜见布莱克一家2:邻家有鬼4k The.House.Next.Door.2021.2160p.WEB-DL.x265.10bit.SDR.DD5.1【8.45GB】
[Hao4k]拜见布莱克一家2:邻家有鬼4k The.House.Next.Door.2021.2160p.WEB-DL.x265.10.torrent (21.76 KB)
回复

使用道具 举报

全部回复31

jixiaolan 发表于 2021-7-10 18:23:03

jixiaolan 2

2021-7-10 18:23:03

不错的资源,谢谢楼主分享
回复 支持 1 反对 0

使用道具 举报

gofaster 发表于 2021-7-10 19:12:18

gofaster 3

2021-7-10 19:12:18

不错的资源,谢谢楼主分享!
回复 支持 反对

使用道具 举报

liyun80000 发表于 2021-7-10 20:16:49

liyun80000 4

2021-7-10 20:16:49

感谢楼主分享
回复 支持 反对

使用道具 举报

wusongk 发表于 2021-7-10 21:28:11

wusongk 5

2021-7-10 21:28:11

谢谢楼主的分享。
回复 支持 反对

使用道具 举报

loliah 发表于 2021-7-10 21:35:27

loliah 6

2021-7-10 21:35:27

这个片好看吗
回复 支持 反对

使用道具 举报

luogeng 发表于 2021-7-10 22:09:41

luogeng 7

2021-7-10 22:09:41

不错的资源,谢谢楼主分享!
回复 支持 反对

使用道具 举报

dk30129 发表于 2021-7-11 11:15:10

dk30129 8

2021-7-11 11:15:10


感谢楼主分享!!!
回复 支持 反对

使用道具 举报

yy20058 发表于 2021-7-11 12:52:46

yy20058 9

2021-7-11 12:52:46



感谢楼主分享!!!
回复 支持 反对

使用道具 举报

josephlok 发表于 2021-7-11 12:56:34

josephlok 10

2021-7-11 12:56:34


Meet The Blacks 2 good good
回复 支持 反对

使用道具 举报

maxk 发表于 2021-7-11 14:58:51

maxk 11

2021-7-11 14:58:51

感谢楼主分享!!!thx
回复 支持 反对

使用道具 举报

悠游 发表于 2021-7-11 16:17:56 Hao4K手机版

悠游 12

2021-7-11 16:17:56

感谢楼主分享
回复 支持 反对

使用道具 举报

珊瑚坝放风筝 发表于 2021-7-11 18:24:18

珊瑚坝放风筝 13

2021-7-11 18:24:18

感谢分享优秀资源
回复 支持 反对

使用道具 举报

kltan9988 发表于 2021-7-11 18:29:54

kltan9988 14

2021-7-11 18:29:54


感谢分享,
回复 支持 反对

使用道具 举报

lewis33 发表于 2021-7-11 18:40:04

lewis33 15

2021-7-11 18:40:04

好不好看呀
回复 支持 反对

使用道具 举报

多啦梦 发表于 2021-7-11 18:45:53 Hao4K手机版

多啦梦 16

2021-7-11 18:45:53

jixiaolan 发表于 2021-7-10 18:23
不错的资源,谢谢楼主分享

师傅,你们是观看啊!还是下载到硬盘啊
回复 支持 反对

使用道具 举报

多啦梦 发表于 2021-7-11 18:48:11 Hao4K手机版

多啦梦 17

2021-7-11 18:48:11

我怎么观看,和下载啊!
回复 支持 反对

使用道具 举报

4328258 发表于 2021-7-11 22:53:59

4328258 18

2021-7-11 22:53:59

坐等中文字幕啊,到处都没有
回复 支持 反对

使用道具 举报

   发表回复

您需要登录后才可以回帖 登录 | 立即注册

返回列表 本版积分规则

  • 在线客服

  • 返回顶部