微博 微信

Hao4K影音

电影频道
电影封面:
片  名: 移居者4k
电影分类: 科幻 
国  家: 英国 
年  代: 2021年
分 辨 率: 4K(3840x2160)
电影格式: MKV|REMUX 
画质标准: HDR10 
音质编码: Dolby Digital Audio 
电影声道: 5.1声道 
帧数/FPS: 23.976 帧
电影语言: 英文原版 
资源大小: 10.59 GB
导  演: Wyatt Rockefeller
豆瓣评分:
中文字幕: /thread-59350-1-1.html
剧情简介: 影片由怀特·洛克菲勒执导,故事讲述Ilsa是一个来自地球的难民,她和丈夫、女儿一起定居在火星边远的恶劣干旱地带。尽管一家人只有一些庄稼和一个家用机器人,他们还是对美好的生活抱有希望。但当附近的山上出现了一群武装袭击者时,一切都被颠覆了。母女俩必须不惜一切代价生存下去,等待最后反击的时机。该片已在在南非和纳米比亚拍摄完成,目前正在后期制作中。
定居者/移居者4k Settlers.2021.2160p.WEB-DL.x265.10bit.HDR.DD5.1-4k电影信息
  1. Video
  2. ID : 1
  3. Format : HEVC
  4. Format/Info : High Efficiency Video Coding
  5. Format profile : Main 10@L5@High
  6. HDR format : SMPTE ST 2086, HDR10 compatible
  7. Codec ID : V_MPEGH/ISO/HEVC
  8. Duration : 1 h 43 min
  9. Bit rate : 14.3 Mb/s
  10. Width : 3 832 pixels
  11. Height : 1 596 pixels
  12. Display aspect ratio : 2.40:1
  13. Frame rate mode : Constant
  14. Frame rate : 23.976 FPS
  15. Color space : YUV
  16. Chroma subsampling : 4:2:0 (Type 2)
  17. Bit depth : 10 bits
  18. Bits/(Pixel*Frame) : 0.097
  19. Stream size : 10.3 GiB (97%)
  20. Default : Yes
  21. Forced : No
  22. Color range : Limited
  23. Color primaries : BT.2020
  24. Transfer characteristics : PQ
  25. Matrix coefficients : BT.2020 non-constant
  26. Mastering display color primaries : BT.2020
  27. Mastering display luminance : min: 0.0050 cd/m2, max: 1000 cd/m2
  28. Maximum Content Light Level : 1010 cd/m2
  29. Maximum Frame-Average Light Level : 405 cd/m2

  30. Audio
  31. ID : 2
  32. Format : AC-3
  33. Format/Info : Audio Coding 3
  34. Commercial name : Dolby Digital
  35. Codec ID : A_AC3
  36. Duration : 1 h 43 min
  37. Bit rate mode : Constant
  38. Bit rate : 384 kb/s
  39. Channel(s) : 6 channels
  40. Channel layout : L R C LFE Ls Rs
  41. Sampling rate : 48.0 kHz
  42. Frame rate : 31.250 FPS (1536 SPF)
  43. Compression mode : Lossy
  44. Stream size : 284 MiB (3%)
  45. Title : English
  46. Language : English
  47. Service kind : Complete Main
  48. Default : Yes
  49. Forced : No

  50. Text
  51. ID : 3
  52. Format : UTF-8
  53. Codec ID : S_TEXT/UTF8
  54. Codec ID/Info : UTF-8 Plain Text
  55. Duration : 1 h 35 min
  56. Bit rate : 17 b/s
  57. Count of elements : 534
  58. Stream size : 12.0 KiB (0%)
  59. Language : English
  60. Default : Yes
  61. Forced : No

  62. Menu
  63. 00:00:00.000 : Scene 1
  64. 00:14:56.000 : Scene 2
  65. 00:29:41.250 : Scene 3
  66. 00:44:45.000 : Scene 4
  67. 00:59:36.350 : Scene 5
  68. 01:14:53.250 : Scene 6
  69. 01:31:34.150 : Scene 7
  70. 01:38:50.000 : Scene 8
复制代码

定居者/移居者4k Settlers.2021.2160p.WEB-DL.x265.10bit.HDR.DD5.1-4k电影下载
移居者4k Settlers.2021.2160p.WEB-DL.x265.10bit.HDR.DD5.1【10.59GB】
[Hao4k]移居者4k Settlers.2021.2160p.WEB-DL.x265.10bit.HDR.DD5.1-NOGRP.torrent (13.87 KB)

免费评分

参与人数 1活跃 +1 H币 +1 收起 理由
空城旧梦11111 + 1 + 1 谢谢分享!

查看全部评分

回复

使用道具 举报

全部回复79

Chilli 发表于 2021-7-10 18:04:39

Chilli 2

2021-7-10 18:04:39

谢谢分享
回复 支持 反对

使用道具 举报

aristotle 发表于 2021-7-10 18:22:16

aristotle 3

2021-7-10 18:22:16

封面不错~
回复 支持 反对

使用道具 举报

jixiaolan 发表于 2021-7-10 18:22:35

jixiaolan 4

2021-7-10 18:22:35

封面看上去很有感觉
回复 支持 反对

使用道具 举报

flaking 发表于 2021-7-10 18:30:13

flaking 5

2021-7-10 18:30:13

谢谢分享
回复 支持 反对

使用道具 举报

waniym 发表于 2021-7-10 18:36:14

waniym 6

2021-7-10 18:36:14

移居者
回复 支持 反对

使用道具 举报

gofaster 发表于 2021-7-10 19:12:34

gofaster 7

2021-7-10 19:12:34

不错的资源,谢谢楼主分享!
回复 支持 反对

使用道具 举报

hotzy6933 发表于 2021-7-10 19:52:55 Hao4K手机版

hotzy6933 8

2021-7-10 19:52:55

谢谢分享
回复 支持 反对

使用道具 举报

peach93 发表于 2021-7-10 20:12:10

peach93 9

2021-7-10 20:12:10

感谢楼主的分享
回复 支持 反对

使用道具 举报

minghuibug 发表于 2021-7-10 20:14:53

minghuibug 10

2021-7-10 20:14:53

我要下载
回复 支持 反对

使用道具 举报

hhhz 发表于 2021-7-10 20:45:34

hhhz 11

2021-7-10 20:45:34

谢谢楼主分享新片!
回复 支持 反对

使用道具 举报

skyjie24 发表于 2021-7-10 20:49:13

skyjie24 12

2021-7-10 20:49:13

字幕哪里有
回复 支持 反对

使用道具 举报

les5332295 发表于 2021-7-10 21:11:23

les5332295 13

2021-7-10 21:11:23

感谢楼主的分享,这电影看似不错
回复 支持 反对

使用道具 举报

cardinlai 发表于 2021-7-10 21:19:47

cardinlai 14

2021-7-10 21:19:47

谢谢分享
回复 支持 反对

使用道具 举报

wusongk 发表于 2021-7-10 21:27:22

wusongk 15

2021-7-10 21:27:22

谢谢楼主分享。
回复 支持 反对

使用道具 举报

loliah 发表于 2021-7-10 21:37:12

loliah 16

2021-7-10 21:37:12

看上去还可以
回复 支持 反对

使用道具 举报

luogeng 发表于 2021-7-10 22:09:49

luogeng 17

2021-7-10 22:09:49

不错的资源,谢谢楼主分享!
回复 支持 反对

使用道具 举报

longdejimoczh 发表于 2021-7-10 22:12:43

longdejimoczh 18

2021-7-10 22:12:43

字幕捏~~~~~
回复 支持 反对

使用道具 举报

   发表回复

您需要登录后才可以回帖 登录 | 立即注册

返回列表 本版积分规则

  • 在线客服

  • 返回顶部