微博 微信

Hao4K影音

电影频道
电影封面:
片  名: Fathom 4k
电影分类: 纪录片 
国  家: 美国 
年  代: 2021年
分 辨 率: 4K(3840x2160)
电影格式: MKV|REMUX 
画质标准: Dolby Vision 
音质编码: Dolby Digital Plus Audio 
电影声道: 5.1声道 
帧数/FPS: 23.976 帧
电影语言: 英文原版 
资源大小: 15.41 GB
导  演: Drew Xanthopoulos
豆瓣评分: 7.2 分
中文字幕: -
剧情简介: 苹果宣布,它已获得令人敬畏的纪录片《Fathom》的全球版权,该片将于6月25日在Apple TV+上独家首映。
  由德鲁·Xanthopoulos(“敏感人”)执导和拍摄,《Fathom》跟随Dr.艾伦·加兰和博士米歇尔·富内特,两位科学家专注于座头鲸歌曲和社交交流的研究。当他们在世界对立面开始平行的研究之旅时,他们寻求更好地了解鲸鱼文化和交流。这部纪录片独特地揭示了对科学pxrocess的深刻承诺和敬畏,以及人类寻求我们周围世界的答案的普遍需求。从假设到该领域的突破性经验,“法通”展示了领先科学家做出科学发现所需的激情、好奇心、合作、毅力和工作。
Fathom 4k Fathom.2021.2160p.ATVP.WEB-DL.DDP5.1.Atmos.DV.x265-4k电影信息
  1. Video
  2. ID : 1
  3. Format : HEVC
  4. Format/Info : High Efficiency Video Coding
  5. Format profile : Main 10@L5@High
  6. HDR format : Dolby Vision, Version 1.0, dvhe.05.06, BL+RPU
  7. Codec ID : dvhe
  8. Codec ID/Info : High Efficiency Video Coding with Dolby Vision
  9. Duration : 1 h 26 min
  10. Bit rate : 24.6 Mb/s
  11. Width : 3 840 pixels
  12. Height : 1 920 pixels
  13. Display aspect ratio : 2.000
  14. Frame rate mode : Constant
  15. Frame rate : 23.976 (24000/1001) FPS
  16. Color space : YUV
  17. Chroma subsampling : 4:2:0
  18. Bit depth : 10 bits
  19. Bits/(Pixel*Frame) : 0.139
  20. Stream size : 14.9 GiB (97%)
  21. Default : Yes
  22. Alternate group : 1
  23. Encoded date : UTC 2021-07-11 17:47:45
  24. Tagged date : UTC 2021-07-11 17:50:56
  25. Codec configuration box : hvcC+dvcC

  26. Audio
  27. ID : 2
  28. Format : E-AC-3 JOC
  29. Format/Info : Enhanced AC-3 with Joint Object Coding
  30. Commercial name : Dolby Digital Plus with Dolby Atmos
  31. Codec ID : ec-3
  32. Duration : 1 h 26 min
  33. Bit rate mode : Constant
  34. Bit rate : 768 kb/s
  35. Maximum bit rate : 811 kb/s
  36. Channel(s) : 6 channels
  37. Channel layout : L R C LFE Ls Rs
  38. Sampling rate : 48.0 kHz
  39. Frame rate : 31.250 FPS (1536 SPF)
  40. Compression mode : Lossy
  41. Stream size : 477 MiB (3%)
  42. Title : English
  43. Language : English
  44. Service kind : Complete Main
  45. Encoded date : UTC 2021-07-11 17:46:21
  46. Tagged date : UTC 2021-07-11 17:50:56
  47. Complexity index : Not present / 16
  48. Number of dynamic objects : 15
  49. Bed channel count : 1 channel
  50. Bed channel configuration : LFE

  51. Text #1
  52. ID : 3
  53. Format : Timed Text
  54. Codec ID : tx3g
  55. Duration : 1 h 21 min
  56. Bit rate mode : Variable
  57. Bit rate : 64 b/s
  58. Stream size : 38.2 KiB (0%)
  59. Title : English
  60. Language : English
  61. Forced : No
  62. Encoded date : UTC 2021-07-11 17:50:48
  63. Tagged date : UTC 2021-07-11 17:50:56

  64. Text #2
  65. ID : 4
  66. Format : Timed Text
  67. Codec ID : tx3g
  68. Duration : 1 h 26 min
  69. Bit rate mode : Variable
  70. Bit rate : 88 b/s
  71. Stream size : 56.1 KiB (0%)
  72. Title : العربية
  73. Language : Arabic
  74. Forced : No
  75. Encoded date : UTC 2021-07-11 17:50:48
  76. Tagged date : UTC 2021-07-11 17:50:56

  77. Text #3
  78. ID : 5
  79. Format : Timed Text
  80. Codec ID : tx3g
  81. Duration : 1 h 26 min
  82. Bit rate mode : Variable
  83. Bit rate : 94 b/s
  84. Stream size : 59.5 KiB (0%)
  85. Title : български
  86. Language : Bulgarian
  87. Forced : No
  88. Encoded date : UTC 2021-07-11 17:50:48
  89. Tagged date : UTC 2021-07-11 17:50:56

  90. Text #4
  91. ID : 6
  92. Format : Timed Text
  93. Codec ID : tx3g
  94. Duration : 1 h 26 min
  95. Bit rate mode : Variable
  96. Bit rate : 59 b/s
  97. Stream size : 37.3 KiB (0%)
  98. Title : 中文(简体)
  99. Language : cmn
  100. Forced : No
  101. Encoded date : UTC 2021-07-11 17:50:48
  102. Tagged date : UTC 2021-07-11 17:50:56

  103. Text #5
  104. ID : 7
  105. Format : Timed Text
  106. Codec ID : tx3g
  107. Duration : 1 h 26 min
  108. Bit rate mode : Variable
  109. Bit rate : 57 b/s
  110. Stream size : 36.5 KiB (0%)
  111. Title : 中文(繁體)
  112. Language : cmn
  113. Forced : No
  114. Encoded date : UTC 2021-07-11 17:50:48
  115. Tagged date : UTC 2021-07-11 17:50:56

  116. Text #6
  117. ID : 8
  118. Format : Timed Text
  119. Codec ID : tx3g
  120. Duration : 1 h 26 min
  121. Bit rate mode : Variable
  122. Bit rate : 62 b/s
  123. Stream size : 39.6 KiB (0%)
  124. Title : Čeština
  125. Language : Czech
  126. Forced : No
  127. Encoded date : UTC 2021-07-11 17:50:49
  128. Tagged date : UTC 2021-07-11 17:50:56

  129. Text #7
  130. ID : 9
  131. Format : Timed Text
  132. Codec ID : tx3g
  133. Duration : 1 h 26 min
  134. Bit rate mode : Variable
  135. Bit rate : 56 b/s
  136. Stream size : 35.3 KiB (0%)
  137. Title : dansk
  138. Language : Danish
  139. Forced : No
  140. Encoded date : UTC 2021-07-11 17:50:49
  141. Tagged date : UTC 2021-07-11 17:50:56

  142. Text #8
  143. ID : 10
  144. Format : Timed Text
  145. Codec ID : tx3g
  146. Duration : 1 h 26 min
  147. Bit rate mode : Variable
  148. Bit rate : 59 b/s
  149. Stream size : 37.7 KiB (0%)
  150. Title : Deutsch
  151. Language : German
  152. Forced : No
  153. Encoded date : UTC 2021-07-11 17:50:49
  154. Tagged date : UTC 2021-07-11 17:50:56

  155. Text #9
  156. ID : 11
  157. Format : Timed Text
  158. Codec ID : tx3g
  159. Duration : 1 h 26 min
  160. Bit rate mode : Variable
  161. Bit rate : 106 b/s
  162. Stream size : 67.6 KiB (0%)
  163. Title : Ελληνικά
  164. Language : Greek
  165. Forced : No
  166. Encoded date : UTC 2021-07-11 17:50:49
  167. Tagged date : UTC 2021-07-11 17:50:56

  168. Text #10
  169. ID : 12
  170. Format : Timed Text
  171. Codec ID : tx3g
  172. Duration : 1 h 26 min
  173. Bit rate mode : Variable
  174. Bit rate : 63 b/s
  175. Stream size : 39.9 KiB (0%)
  176. Title : Español (Latinoamérica)
  177. Language : Spanish
  178. Forced : No
  179. Encoded date : UTC 2021-07-11 17:50:49
  180. Tagged date : UTC 2021-07-11 17:50:56

  181. Text #11
  182. ID : 13
  183. Format : Timed Text
  184. Codec ID : tx3g
  185. Duration : 1 h 26 min
  186. Bit rate mode : Variable
  187. Bit rate : 64 b/s
  188. Stream size : 40.3 KiB (0%)
  189. Title : Español (España)
  190. Language : Spanish
  191. Forced : No
  192. Encoded date : UTC 2021-07-11 17:50:50
  193. Tagged date : UTC 2021-07-11 17:50:56
复制代码

Fathom 4k Fathom.2021.2160p.ATVP.WEB-DL.DDP5.1.Atmos.DV.x265-4k电影下载

Fathom 4k Fathom.2021.2160p.ATVP.WEB-DL.DDP5.1.Atmos.DV.x265【15.41GB】
[Hao4k]Fathom.2021.2160p.ATVP.WEB-DL.DDP5.1.Atmos.DV.x265-FLUX.torrent (19.89 KB, 售价: 2 个K币)
回复

使用道具 举报

全部回复52

Mathk 发表于 2021-7-12 09:44:46

Mathk 2

2021-7-12 09:44:46

Thanks  a  lots  ...............  !!!
回复 支持 反对

使用道具 举报

达达617 发表于 2021-7-12 09:56:21 Hao4K手机版

达达617 3

2021-7-12 09:56:21

哪里有K币买
回复 支持 反对

使用道具 举报

mazeg 发表于 2021-7-12 10:14:18

mazeg 4

2021-7-12 10:14:18

纪录片不容错过。
回复 支持 反对

使用道具 举报

lenglengxi 发表于 2021-7-12 10:17:05

lenglengxi 5

2021-7-12 10:17:05

很棒!!!!纪录片不能错过!
回复 支持 反对

使用道具 举报

dxhdl2009 发表于 2021-7-12 10:58:07

dxhdl2009 6

2021-7-12 10:58:07

哒哒哒哒哒哒多多多
回复 支持 反对

使用道具 举报

xxw8888 发表于 2021-7-12 11:02:15

xxw8888 7

2021-7-12 11:02:15

谢谢分享
回复 支持 反对

使用道具 举报

WOAI4KDY 发表于 2021-7-12 11:06:01

WOAI4KDY 8

2021-7-12 11:06:01

什么内容的纪录片?
回复 支持 反对

使用道具 举报

otherboy 发表于 2021-7-12 11:58:32

otherboy 9

2021-7-12 11:58:32

杜比视界纪录片还是要下来保存下下的
回复 支持 反对

使用道具 举报

liuD 发表于 2021-7-12 12:01:42

liuD 10

2021-7-12 12:01:42

谢谢分享,来支持纪录片!
回复 支持 反对

使用道具 举报

尼洛夫 发表于 2021-7-12 12:14:17

尼洛夫 11

2021-7-12 12:14:17

哇,感谢楼主分享这部关于鲸鱼的4K纪录片,这方面的纪录片真的太稀少了
回复 支持 反对

使用道具 举报

yncc888 发表于 2021-7-12 12:22:26

yncc888 12

2021-7-12 12:22:26

感谢楼主分享,纪录片很不错的!
回复 支持 反对

使用道具 举报

huangdi123 发表于 2021-7-12 13:28:42

huangdi123 13

2021-7-12 13:28:42

感谢楼主分享
回复 支持 反对

使用道具 举报

gtt9999 发表于 2021-7-12 13:50:00

gtt9999 14

2021-7-12 13:50:00


每天签到,K币用不完的
回复 支持 1 反对 0

使用道具 举报

ajian.lu 发表于 2021-7-12 14:17:02

ajian.lu 15

2021-7-12 14:17:02

谢谢分享!是不是自带繁体中字啊
回复 支持 反对

使用道具 举报

XHJJSS 发表于 2021-7-12 14:42:55

XHJJSS 16

2021-7-12 14:42:55

此类记录片好评,还不用币,下载了等孩子大点给他看。
回复 支持 反对

使用道具 举报

liyun80000 发表于 2021-7-12 15:05:52

liyun80000 17

2021-7-12 15:05:52

感谢楼主分享
回复 支持 反对

使用道具 举报

cardinlai 发表于 2021-7-12 15:50:37

cardinlai 18

2021-7-12 15:50:37

谢谢分享
回复 支持 反对

使用道具 举报

   发表回复

您需要登录后才可以回帖 登录 | 立即注册

返回列表 本版积分规则

  • 在线客服

  • 返回顶部