微博 微信

Hao4K影音

电影频道
电影封面:
片  名: 老雷斯的故事4k
电影分类: 奇幻 动画 其他 
国  家: 美国 法国 
年  代: 2012年
分 辨 率: 4K(3840x2160)
电影格式: MKV|REMUX 
画质标准: SDR 
音质编码: DTS-HD Master Audio 
电影声道: 5.1声道 
帧数/FPS: 3.976 帧
电影语言: 英文原版 
资源大小: 11.00 GB
导  演: 克里斯·雷纳德 / 凯尔·巴尔达
豆瓣评分: 6.9 分
中文字幕: -
剧情简介: 在一个名叫特尼镇的所在,鸟语花香,草木清新,生活富足,只是这些都是表面的假象,所有的树木都由人工材料做成,并通过电脑和电力维持运作。虽然空气质量糟糕,可是当地的人民乐于享受这便利的现代化生活,更何况有欧海尔先生(Rob Riggle 配音)为他们提供新鲜的桶装空气呢!小青年泰德(扎克·埃夫隆 Zac Efron 配音)暗恋美丽的姑娘奥黛丽(泰勒·史薇芙特 Taylor Swift 配音),为了帮助女孩实现见到真正树木的梦想,他铤而走险离开特尼镇,来到满目疮痍、阴霾污浊的外部世界寻找传说中知晓关于树木一切信息的老万。从老万口中,泰德了解到这个曾经的成功商人以及当初棉花树满布的乐园变成荒山的全过程。乐土从此一去不返,除非……
  本片改编自著名苏斯博士(Dr. Seuss)1971年经典同名原著,并荣获2012年青年选择奖最佳配音(Taylor Swift)和最佳动画片奖。
罗雷司(台) / 绿野仙生(港)/老雷斯的故事4k The.Lorax.2012.2160p.WEB-DL.x265.8bit.SDR.DTS-HD.MA.5.1- 4k电影信息
  1. Video
  2. ID : 1
  3. Format : HEVC
  4. Format/Info : High Efficiency Video Coding
  5. Format profile : Main@L5@High
  6. Codec ID : V_MPEGH/ISO/HEVC
  7. Duration : 1 h 26 min
  8. Bit rate : 13.7 Mb/s
  9. Width : 3 840 pixels
  10. Height : 2 160 pixels
  11. Display aspect ratio : 16:9
  12. Frame rate mode : Constant
  13. Frame rate : 23.976 (24000/1001) FPS
  14. Color space : YUV
  15. Chroma subsampling : 4:2:0
  16. Bit depth : 8 bits
  17. Bits/(Pixel*Frame) : 0.069
  18. Stream size : 8.24 GiB (75%)
  19. Default : Yes
  20. Forced : No
  21. Color range : Limited
  22. Color primaries : BT.709
  23. Transfer characteristics : BT.709
  24. Matrix coefficients : BT.709

  25. Audio #1
  26. ID : 2
  27. Format : DTS XLL
  28. Format/Info : Digital Theater Systems
  29. Commercial name : DTS-HD Master Audio
  30. Codec ID : A_DTS
  31. Duration : 1 h 26 min
  32. Bit rate mode : Variable
  33. Bit rate : 4 124 kb/s
  34. Channel(s) : 6 channels
  35. Channel layout : C L R Ls Rs LFE
  36. Sampling rate : 48.0 kHz
  37. Frame rate : 93.750 FPS (512 SPF)
  38. Bit depth : 24 bits
  39. Compression mode : Lossless
  40. Delay relative to video : 6 ms
  41. Stream size : 2.49 GiB (23%)
  42. Title : DTS-HD MA 5.1
  43. Language : English
  44. Default : Yes
  45. Forced : No

  46. Audio #2
  47. ID : 3
  48. Format : AAC LC
  49. Format/Info : Advanced Audio Codec Low Complexity
  50. Codec ID : A_AAC-2
  51. Duration : 1 h 26 min
  52. Bit rate : 445 kb/s
  53. Channel(s) : 6 channels
  54. Channel layout : C L R Ls Rs LFE
  55. Sampling rate : 48.0 kHz
  56. Frame rate : 46.875 FPS (1024 SPF)
  57. Compression mode : Lossy
  58. Stream size : 274 MiB (2%)
  59. Title : AAC 5.1
  60. Language : English
  61. Default : No
  62. Forced : No

  63. Text
  64. ID : 4
  65. Format : UTF-8
  66. Codec ID : S_TEXT/UTF8
  67. Codec ID/Info : UTF-8 Plain Text
  68. Duration : 1 h 25 min
  69. Bit rate : 66 b/s
  70. Count of elements : 1454
  71. Stream size : 41.8 KiB (0%)
  72. Title : English
  73. Language : English
  74. Default : Yes
  75. Forced : No

  76. Menu
  77. 00:00:00.000 : 00:00:00.000
  78. 00:04:13.003 : 00:04:13.003
  79. 00:06:38.481 : 00:06:38.481
  80. 00:10:04.771 : 00:10:04.771
  81. 00:13:56.127 : 00:13:56.127
  82. 00:16:39.874 : 00:16:39.874
  83. 00:21:30.414 : 00:21:30.414
  84. 00:28:18.488 : 00:28:18.488
  85. 00:32:49.175 : 00:32:49.175
  86. 00:39:49.554 : 00:39:49.554
  87. 00:42:26.419 : 00:42:26.419
  88. 00:45:45.034 : 00:45:45.034
  89. 00:51:21.578 : 00:51:21.578
  90. 00:56:32.848 : 00:56:32.848
  91. 00:59:07.836 : 00:59:07.836
  92. 01:03:18.461 : 01:03:18.461
  93. 01:07:13.821 : 01:07:13.821
  94. 01:12:35.726 : 01:12:35.726
  95. 01:16:05.102 : 01:16:05.102
复制代码

罗雷司(台) / 绿野仙生(港)/老雷斯的故事4k The.Lorax.2012.2160p.WEB-DL.x265.8bit.SDR.DTS-HD.MA.5.1- 4k电影下载
老雷斯的故事4k The.Lorax.2012.2160p.WEB-DL.x265.8bit.SDR.DTS-HD.MA.5.1【11.00GB】
[Hao4k]老雷斯的故事4k The.Lorax.2012.2160p.WEB-DL.x265.8bit.SDR.DTS-HD.MA.5.1-SW.torrent (14.39 KB)
回复

使用道具 举报

全部回复10

qiujian1976 发表于 2021-7-13 07:59:15 Hao4K手机版

qiujian1976 2

2021-7-13 07:59:15

值得一看 謝謝樓主分享
回复 支持 反对

使用道具 举报

loliah 发表于 2021-7-13 09:44:33

loliah 3

2021-7-13 09:44:33

謝謝樓主分享
回复 支持 反对

使用道具 举报

56789trewq 发表于 2021-7-13 16:48:28

56789trewq 4

2021-7-13 16:48:28

感謝樓主提供這麼多4K畫質內容,期待您往後的分享!
回复 支持 反对

使用道具 举报

cdyangjun2019 发表于 2021-7-13 17:26:54

cdyangjun2019 5

2021-7-13 17:26:54

这个动画片不错,谢谢楼主分享
回复 支持 反对

使用道具 举报

GXD639 发表于 2021-7-14 16:22:35

GXD639 6

2021-7-14 16:22:35

不错。谢谢分享。
回复 支持 反对

使用道具 举报

wybinhua 发表于 2021-7-17 22:32:58

wybinhua 7

2021-7-17 22:32:58

这个动画片不错
回复 支持 反对

使用道具 举报

garfelied 发表于 2021-7-18 10:20:34

garfelied 8

2021-7-18 10:20:34

感谢楼主分享
回复 支持 反对

使用道具 举报

cchhoonn 发表于 2021-7-19 14:25:24

cchhoonn 9

2021-7-19 14:25:24

喜欢动画片,感谢分享
回复 支持 反对

使用道具 举报

hhj1988 发表于 2021-7-20 15:00:08

hhj1988 10

2021-7-20 15:00:08


感谢楼主分享~~
回复 支持 反对

使用道具 举报

maxk 发表于 2021-7-21 08:39:46

maxk 11

2021-7-21 08:39:46

請問~哪裡有本片字幕可以分享呢?  謝謝
回复 支持 反对

使用道具 举报

   发表回复

您需要登录后才可以回帖 登录 | 立即注册

返回列表 本版积分规则

  • 在线客服

  • 返回顶部