微博 微信

Hao4K影音

电影频道
电影封面:
片  名: 伴娘4k
电影分类: 喜剧 
国  家: 美国 
年  代: 2010年
分 辨 率: 4K(3840x2160)
电影格式: MKV|REMUX 
画质标准: SDR 
音质编码: DTS-HD Master Audio 
电影声道: 5.1声道 
帧数/FPS: 23.976 帧
电影语言: 英文原版 
资源大小: 16.49 GB
导  演: 保罗·费格
豆瓣评分: 6.9 分
中文字幕: /thread-59399-1-1.html
剧情简介: 人到中年的安妮(克里斯汀·韦格 Kristen Wiig 饰)仍旧一事无成,浑噩度日。交往已久的男友只是把她当做情人,并无与她组建家庭的打算。此时,安妮的好友莉莉安(玛娅·鲁道夫 Maya Rudolph 饰)突然要结婚了,并邀请了包括她在内的几名女性好友组成伴娘团。伴 娘团之中的海伦(萝丝·拜恩 Rose Byrne 饰)家底深厚且八面玲珑,倾力为莉莉安打造奢华订婚礼。安妮不满海伦主导订婚礼筹备,处处与其针锋相对,试图向莉莉安昭告她深厚的情谊,但每次努力都令众人不悦,反而引致莉莉安的不满。
  同时,安妮也开始面对人生中的诸多问题。交警罗兹(克里斯·奥多德 Chris O\'Dow 饰)的出现似乎为安妮打开了另一扇窗。安妮能否摆脱这些困境,步入生活的正轨呢?
最爆伴娘团(港) / 伴娘我最大(台) / 闺蜜争宠 / 伴娘也疯狂 / 伴娘团/伴娘4k Bridesmaids.2011.THEATRICAL.2160p.WEB-DL.x265.8bit.SDR.DTS-HD.MA.5.1-4k电影信息
  1. Video
  2. ID : 1
  3. Format : HEVC
  4. Format/Info : High Efficiency Video Coding
  5. Format profile : Main@L5@High
  6. Codec ID : V_MPEGH/ISO/HEVC
  7. Duration : 2 h 4 min
  8. Bit rate : 14.9 Mb/s
  9. Width : 3 840 pixels
  10. Height : 2 160 pixels
  11. Display aspect ratio : 16:9
  12. Frame rate mode : Constant
  13. Frame rate : 23.976 (24000/1001) FPS
  14. Color space : YUV
  15. Chroma subsampling : 4:2:0
  16. Bit depth : 8 bits
  17. Bits/(Pixel*Frame) : 0.075
  18. Stream size : 13.0 GiB (79%)
  19. Default : Yes
  20. Forced : No
  21. Color range : Limited
  22. Color primaries : BT.709
  23. Transfer characteristics : BT.709
  24. Matrix coefficients : BT.709

  25. Audio #1
  26. ID : 2
  27. Format : DTS XLL
  28. Format/Info : Digital Theater Systems
  29. Commercial name : DTS-HD Master Audio
  30. Codec ID : A_DTS
  31. Duration : 2 h 4 min
  32. Bit rate mode : Variable
  33. Bit rate : 3 602 kb/s
  34. Channel(s) : 6 channels
  35. Channel layout : C L R Ls Rs LFE
  36. Sampling rate : 48.0 kHz
  37. Frame rate : 93.750 FPS (512 SPF)
  38. Bit depth : 24 bits
  39. Compression mode : Lossless
  40. Stream size : 3.14 GiB (19%)
  41. Title : DTS-HD MA 5.1
  42. Language : English
  43. Default : Yes
  44. Forced : No

  45. Audio #2
  46. ID : 3
  47. Format : AAC LC
  48. Format/Info : Advanced Audio Codec Low Complexity
  49. Codec ID : A_AAC-2
  50. Duration : 2 h 4 min
  51. Bit rate : 445 kb/s
  52. Channel(s) : 6 channels
  53. Channel layout : C L R Ls Rs LFE
  54. Sampling rate : 48.0 kHz
  55. Frame rate : 46.875 FPS (1024 SPF)
  56. Compression mode : Lossy
  57. Stream size : 398 MiB (2%)
  58. Title : AAC 5.1
  59. Language : English
  60. Default : No
  61. Forced : No

  62. Text
  63. ID : 4
  64. Format : UTF-8
  65. Codec ID : S_TEXT/UTF8
  66. Codec ID/Info : UTF-8 Plain Text
  67. Duration : 2 h 4 min
  68. Bit rate : 97 b/s
  69. Count of elements : 2334
  70. Stream size : 88.7 KiB (0%)
  71. Title : English
  72. Language : English
  73. Default : Yes
  74. Forced : No

  75. Menu
  76. 00:00:00.000 : Chapter 01
  77. 00:08:36.349 : Chapter 02
  78. 00:12:12.565 : Chapter 03
  79. 00:16:23.941 : Chapter 04
  80. 00:21:39.756 : Chapter 05
  81. 00:27:17.552 : Chapter 06
  82. 00:33:10.530 : Chapter 07
  83. 00:40:34.265 : Chapter 08
  84. 00:47:57.749 : Chapter 09
  85. 00:54:21.049 : Chapter 10
  86. 01:02:01.801 : Chapter 11
  87. 01:06:44.000 : Chapter 12
  88. 01:12:32.973 : Chapter 13
  89. 01:17:04.411 : Chapter 14
  90. 01:21:40.353 : Chapter 15
  91. 01:28:11.327 : Chapter 16
  92. 01:33:46.996 : Chapter 17
  93. 01:40:36.864 : Chapter 18
  94. 01:48:14.362 : Chapter 19
  95. 01:55:42.894 : Chapter 20
复制代码

最爆伴娘团(港) / 伴娘我最大(台) / 闺蜜争宠 / 伴娘也疯狂 / 伴娘团/伴娘4k Bridesmaids.2011.THEATRICAL.2160p.WEB-DL.x265.8bit.SDR.DTS-HD.MA.5.1-4k电影下载
伴娘4k Bridesmaids.2011.THEATRICAL.2160p.WEB-DL.x265.8bit.SDR.DTS-HD.MA.5.1【16.49GB】
[Hao4k]伴娘4k Bridesmaids.2011.THEATRICAL.2160p.WEB-DL.x265.8bit.SDR.DTS-HD.MA.5.torrent (21.29 KB)
回复

使用道具 举报

全部回复17

les5332295 发表于 2021-7-12 19:39:54

les5332295 2

2021-7-12 19:39:54

沙发,克里斯汀·韦格主演电影
回复 支持 反对

使用道具 举报

ywf6168 发表于 2021-7-12 20:49:48

ywf6168 3

2021-7-12 20:49:48

谢谢分享

免费评分

参与人数 1违规 +1 收起 理由
花落无声 + 1 违反规则:多个主题回复相同内容(第五章第.

查看全部评分

回复 支持 反对

使用道具 举报

yangly 发表于 2021-7-13 00:13:08 Hao4K手机版

yangly 4

2021-7-13 00:13:08

感谢分享好电影
回复 支持 反对

使用道具 举报

qiujian1976 发表于 2021-7-13 07:57:18 Hao4K手机版

qiujian1976 5

2021-7-13 07:57:18

不錯的影片!感謝分享
回复 支持 反对

使用道具 举报

hotzy6933 发表于 2021-7-13 08:10:23

hotzy6933 6

2021-7-13 08:10:23

谢谢分享

免费评分

参与人数 1违规 +1 收起 理由
花落无声 + 1 违反规则:多个主题回复相同内容(第五章第.

查看全部评分

回复 支持 反对

使用道具 举报

bbgrnnji 发表于 2021-7-13 08:37:13

bbgrnnji 7

2021-7-13 08:37:13

感觉还是不错的
回复 支持 反对

使用道具 举报

greenwoods 发表于 2021-7-13 09:24:52

greenwoods 8

2021-7-13 09:24:52

谢谢分享!!!
回复 支持 反对

使用道具 举报

dragon_walk 发表于 2021-7-13 09:32:16

dragon_walk 9

2021-7-13 09:32:16

不错不错
回复 支持 反对

使用道具 举报

yngjzyy 发表于 2021-7-13 09:45:47

yngjzyy 10

2021-7-13 09:45:47

谢谢分享!

免费评分

参与人数 1违规 +1 收起 理由
花落无声 + 1 违反规则:多个主题回复相同内容(第五章第.

查看全部评分

回复 支持 反对

使用道具 举报

loliah 发表于 2021-7-13 09:47:40

loliah 11

2021-7-13 09:47:40

谢谢分享

免费评分

参与人数 1违规 +1 收起 理由
花落无声 + 1 违反规则:多个主题回复相同内容(第五章第.

查看全部评分

回复 支持 反对

使用道具 举报

panbell 发表于 2021-7-13 09:50:27

panbell 12

2021-7-13 09:50:27

感谢分享好电影
回复 支持 反对

使用道具 举报

liyun80000 发表于 2021-7-13 12:34:45

liyun80000 13

2021-7-13 12:34:45

谢谢楼主分享
回复 支持 反对

使用道具 举报

HSSWWH1969 发表于 2021-7-14 15:28:44

HSSWWH1969 14

2021-7-14 15:28:44

谢谢分享,好人!
回复 支持 1 反对 0

使用道具 举报

wusongk 发表于 2021-7-14 17:43:59

wusongk 15

2021-7-14 17:43:59

谢谢楼主分享。
回复 支持 反对

使用道具 举报

BORA1.6 发表于 2021-7-14 20:30:20

BORA1.6 16

2021-7-14 20:30:20


谢谢楼主分享
回复 支持 反对

使用道具 举报

Marcoo 发表于 2021-7-17 15:25:05

Marcoo 17

2021-7-17 15:25:05

字幕是乱的.. 后面时间根本对不上...
回复 支持 1 反对 0

使用道具 举报

cj5101312 发表于 2021-7-17 22:18:53

cj5101312 18

2021-7-17 22:18:53

好漂亮的海报,满满的年代感
回复 支持 反对

使用道具 举报

   发表回复

您需要登录后才可以回帖 登录 | 立即注册

返回列表 本版积分规则

  • 在线客服

  • 返回顶部