微博 微信

Hao4K影音

电影频道
电影封面:
片  名: 火花兄弟4k
电影分类: 纪录片 其他 
国  家: 英国 
年  代: 2021年
分 辨 率: 4K(3840x2160)
电影格式: MKV|REMUX 
画质标准: HDR SDR 
音质编码: Dolby Digital Audio 
电影声道: 5.1声道 
帧数/FPS: 23.976 帧
电影语言: 英文原版 
资源大小: 14.25 GB
导  演: 埃德加·赖特
豆瓣评分:
中文字幕: -
剧情简介: Sparks乐队由拉塞尔·梅尔、罗恩·梅尔两兄弟于1972年创立。该片记录了Sparks乐队几十年的职业生涯和影响力。
火花兄弟4k The.Sparks.Brothers.2021.2160p.WEB-DL.x265.10bit.HDR.DD5.1-4k电影信息
  1. Video
  2. ID : 1
  3. Format : HEVC
  4. Format/Info : High Efficiency Video Coding
  5. Format profile : Main 10@L5@High
  6. HDR format : SMPTE ST 2086, HDR10 compatible
  7. Codec ID : V_MPEGH/ISO/HEVC
  8. Duration : 2 h 21 min
  9. Bit rate : 14.1 Mb/s
  10. Width : 3 836 pixels
  11. Height : 2 072 pixels
  12. Display aspect ratio : 1.85:1
  13. Frame rate mode : Constant
  14. Frame rate : 23.976 (24000/1001) FPS
  15. Color space : YUV
  16. Chroma subsampling : 4:2:0 (Type 2)
  17. Bit depth : 10 bits
  18. Bits/(Pixel*Frame) : 0.074
  19. Stream size : 13.9 GiB (97%)
  20. Language : English
  21. Default : Yes
  22. Forced : No
  23. Color range : Limited
  24. Color primaries : BT.2020
  25. Transfer characteristics : PQ
  26. Matrix coefficients : BT.2020 non-constant
  27. Mastering display color primaries : Display P3
  28. Mastering display luminance : min: 0.0050 cd/m2, max: 1000 cd/m2
  29. Maximum Content Light Level : 957 cd/m2
  30. Maximum Frame-Average Light Level : 122 cd/m2

  31. Audio
  32. ID : 2
  33. Format : AC-3
  34. Format/Info : Audio Coding 3
  35. Commercial name : Dolby Digital
  36. Codec ID : A_AC3
  37. Duration : 2 h 21 min
  38. Bit rate mode : Constant
  39. Bit rate : 384 kb/s
  40. Channel(s) : 6 channels
  41. Channel layout : L R C LFE Ls Rs
  42. Sampling rate : 48.0 kHz
  43. Frame rate : 31.250 FPS (1536 SPF)
  44. Compression mode : Lossy
  45. Stream size : 388 MiB (3%)
  46. Language : English
  47. Service kind : Complete Main
  48. Default : Yes
  49. Forced : No

  50. Text #1
  51. ID : 3
  52. Format : UTF-8
  53. Codec ID : S_TEXT/UTF8
  54. Codec ID/Info : UTF-8 Plain Text
  55. Duration : 2 h 20 min
  56. Bit rate : 123 b/s
  57. Count of elements : 2851
  58. Stream size : 127 KiB (0%)
  59. Title : (SDH)
  60. Language : English
  61. Default : No
  62. Forced : No

  63. Text #2
  64. ID : 4
  65. Format : UTF-8
  66. Codec ID : S_TEXT/UTF8
  67. Codec ID/Info : UTF-8 Plain Text
  68. Duration : 2 h 19 min
  69. Bit rate : 99 b/s
  70. Count of elements : 2143
  71. Stream size : 102 KiB (0%)
  72. Language : French
  73. Default : No
  74. Forced : No

  75. Text #3
  76. ID : 5
  77. Format : UTF-8
  78. Codec ID : S_TEXT/UTF8
  79. Codec ID/Info : UTF-8 Plain Text
  80. Duration : 2 h 19 min
  81. Bit rate : 95 b/s
  82. Count of elements : 1982
  83. Stream size : 98.1 KiB (0%)
  84. Language : Spanish
  85. Default : No
  86. Forced : No
复制代码

火花兄弟4k The.Sparks.Brothers.2021.2160p.WEB-DL.x265.10bit.HDR.DD5.1-4k电影下载

火花兄弟4k The.Sparks.Brothers.2021.2160p.WEB-DL.x265.10bit.HDR.DD5.1【14.25GB】
[Hao4k]火花兄弟4k The.Sparks.Brothers.2021.2160p.WEB-DL.x265.10bit.HDR.DD5.1-ROC.torrent (18.47 KB, 售价: 2 个K币)
回复

使用道具 举报

全部回复2

zsad 发表于 2021-7-13 13:59:38

zsad 2

2021-7-13 13:59:38

谢谢楼主分享
回复 支持 反对

使用道具 举报

mazeg 发表于 3 天前

mazeg 3

3 天前

纪录片不容错过,中文名与另一种上世纪居家生活品遗留物--火花有联系么?
回复 支持 反对

使用道具 举报

   发表回复

您需要登录后才可以回帖 登录 | 立即注册

返回列表 本版积分规则

  • 在线客服

  • 返回顶部