微博 微信

Hao4K影音

电影频道
电影封面:
片  名: 一起在一起4k
电影分类: 喜剧 
国  家: 美国 
年  代: 2021年
分 辨 率: 4K(3840x2160)
电影格式: MKV|REMUX 
画质标准: SDR 
音质编码: Dolby Digital Audio 
电影声道: 5.1声道 
帧数/FPS: 23.976 帧
电影语言: 英文原版 
资源大小: 13.42 GB
导  演: 尼克勒·贝克威思
豆瓣评分: 6.2 分
中文字幕: -
剧情简介: 中年单身程序设计师马特决定要当父亲,通过面试找到26岁的咖啡店服务生安娜代孕生子。安娜因与家人关系僵化,搬至旧金山,她希望通过代孕能获得供自己完成学业的钱。在孕期马特积极介入安娜的生活,事无巨细,安娜也逐渐接受马特的亲密,彼此敞开心扉,建立了一段不太寻常的友谊。
一起在一起4k Together.Together.2021.2160p.WEB-DL.x265.10bit.SDR.DD5.1-4k电影信息
  1. Video
  2. ID : 1
  3. Format : HEVC
  4. Format/Info : High Efficiency Video Coding
  5. Format profile : Main 10@L5@High
  6. Codec ID : V_MPEGH/ISO/HEVC
  7. Duration : 1 h 30 min
  8. Bit rate : 20.8 Mb/s
  9. Width : 3 836 pixels
  10. Height : 1 920 pixels
  11. Display aspect ratio : 1.998
  12. Frame rate mode : Constant
  13. Frame rate : 23.976 (24000/1001) FPS
  14. Color space : YUV
  15. Chroma subsampling : 4:2:0
  16. Bit depth : 10 bits
  17. Bits/(Pixel*Frame) : 0.118
  18. Stream size : 13.2 GiB (98%)
  19. Language : English
  20. Default : Yes
  21. Forced : No
  22. Color range : Limited
  23. Color primaries : BT.709
  24. Transfer characteristics : BT.709
  25. Matrix coefficients : BT.709

  26. Audio
  27. ID : 2
  28. Format : AC-3
  29. Format/Info : Audio Coding 3
  30. Commercial name : Dolby Digital
  31. Codec ID : A_AC3
  32. Duration : 1 h 30 min
  33. Bit rate mode : Constant
  34. Bit rate : 384 kb/s
  35. Channel(s) : 6 channels
  36. Channel layout : L R C LFE Ls Rs
  37. Sampling rate : 48.0 kHz
  38. Frame rate : 31.250 FPS (1536 SPF)
  39. Compression mode : Lossy
  40. Stream size : 249 MiB (2%)
  41. Language : English
  42. Service kind : Complete Main
  43. Default : Yes
  44. Forced : No

  45. Text
  46. ID : 3
  47. Format : UTF-8
  48. Codec ID : S_TEXT/UTF8
  49. Codec ID/Info : UTF-8 Plain Text
  50. Duration : 1 h 29 min
  51. Bit rate : 59 b/s
  52. Count of elements : 1482
  53. Stream size : 39.3 KiB (0%)
  54. Language : Spanish
  55. Default : No
  56. Forced : No
复制代码

一起在一起4k Together.Together.2021.2160p.WEB-DL.x265.10bit.SDR.DD5.1-4k电影下载
一起在一起4k Together.Together.2021.2160p.WEB-DL.x265.10bit.SDR.DD5.1【13.42GB】
[Hao4k]一起在一起4k Together.Together.2021.2160p.WEB-DL.x265.10bit.SDR.DD5.1-ROC.torrent (17.41 KB, 售价: 2 个K币)
回复

使用道具 举报

全部回复5

xxw8888 发表于 2021-7-13 10:49:08

xxw8888 2

2021-7-13 10:49:08

谢谢分享新片
回复 支持 反对

使用道具 举报

zsad 发表于 2021-7-13 13:59:12

zsad 3

2021-7-13 13:59:12

谢谢楼主分享
回复 支持 反对

使用道具 举报

lenglengxi 发表于 2021-7-13 14:29:13

lenglengxi 4

2021-7-13 14:29:13

感谢分享!!!好看呀~
回复 支持 反对

使用道具 举报

56789trewq 发表于 2021-7-13 14:39:33

56789trewq 5

2021-7-13 14:39:33

一起在一起-簡繁字幕
字幕在這邊喔
回复 支持 反对

使用道具 举报

yuin01 发表于 2021-7-14 20:55:48

yuin01 6

2021-7-14 20:55:48

感谢分享,下来看看!
回复 支持 反对

使用道具 举报

   发表回复

您需要登录后才可以回帖 登录 | 立即注册

返回列表 本版积分规则

  • 在线客服

  • 返回顶部