微博 微信

Hao4K影音

电影频道
电影封面:
片  名: Eddie 4k
电影分类: 惊悚 
国  家: 美国 
年  代: 2021年
分 辨 率: 4K(3840x2160)
电影格式: MKV|REMUX 
画质标准: 其他 
音质编码: Dolby Digital Audio 
电影声道: 其他 
帧数/FPS: 23.976 帧
电影语言: 英文原版 
资源大小: 14.52 GB
导  演: 迪伦·格雷·马丁
豆瓣评分:
中文字幕: -
剧情简介: 一个在亚利桑那沙漠​​经营加油站的人找到了赢得他最忠实客户的爱的机会。他的机会是谋杀。
Eddie.2021.2160p.WEB.H265-4k电影信息
  1. Video
  2. ID : 1
  3. Format : HEVC
  4. Format/Info : High Efficiency Video Coding
  5. Format profile : Main 10@L5@High
  6. Codec ID : V_MPEGH/ISO/HEVC
  7. Duration : 1 h 39 min
  8. Bit rate : 20.6 Mb/s
  9. Width : 3 840 pixels
  10. Height : 2 024 pixels
  11. Display aspect ratio : 1.897
  12. Frame rate mode : Constant
  13. Frame rate : 23.976 (23976/1000) FPS
  14. Color space : YUV
  15. Chroma subsampling : 4:2:0
  16. Bit depth : 10 bits
  17. Bits/(Pixel*Frame) : 0.111
  18. Stream size : 14.2 GiB (98%)
  19. Default : Yes
  20. Forced : No
  21. Color range : Limited
  22. Color primaries : BT.709
  23. Transfer characteristics : BT.709
  24. Matrix coefficients : BT.709

  25. Audio
  26. ID : 2
  27. Format : AC-3
  28. Format/Info : Audio Coding 3
  29. Commercial name : Dolby Digital
  30. Codec ID : A_AC3
  31. Duration : 1 h 39 min
  32. Bit rate mode : Constant
  33. Bit rate : 384 kb/s
  34. Channel(s) : 6 channels
  35. Channel layout : L R C LFE Ls Rs
  36. Sampling rate : 48.0 kHz
  37. Frame rate : 31.250 FPS (1536 SPF)
  38. Compression mode : Lossy
  39. Stream size : 272 MiB (2%)
  40. Title : English
  41. Language : English
  42. Service kind : Complete Main
  43. Default : Yes
  44. Forced : No

  45. Text
  46. ID : 3
  47. Format : UTF-8
  48. Codec ID : S_TEXT/UTF8
  49. Codec ID/Info : UTF-8 Plain Text
  50. Duration : 1 h 36 min
  51. Bit rate : 81 b/s
  52. Count of elements : 2165
  53. Stream size : 57.2 KiB (0%)
  54. Language : English
  55. Default : Yes
  56. Forced : No
复制代码

Eddie.2021.2160p.WEB.H265-4k电影下载
Eddie.2021.2160p.WEB.H265【14.52GB】
[Hao4k]Eddie.2021.2160p.WEB.H265-NOGRP.torrent (18.75 KB)
回复

使用道具 举报

全部回复4

hhhz 发表于 2021-7-13 21:03:49

hhhz 2

2021-7-13 21:03:49

感谢楼主分享新片!
回复 支持 反对

使用道具 举报

scutor 发表于 2021-7-14 01:37:00

scutor 3

2021-7-14 01:37:00

不错的片
回复 支持 反对

使用道具 举报

月光麦田 发表于 2021-7-15 08:41:45

月光麦田 4

2021-7-15 08:41:45

谢谢分享

免费评分

参与人数 1违规 +1 收起 理由
hao4k + 1 违反论坛规则:多个主题回复相同内容(第五章第1条)

查看全部评分

回复 支持 反对

使用道具 举报

chenwl 发表于 2021-7-25 14:19:15 Hao4K手机版

chenwl 5

2021-7-25 14:19:15

感谢分享,不错的片源
回复 支持 反对

使用道具 举报

   发表回复

您需要登录后才可以回帖 登录 | 立即注册

返回列表 本版积分规则

  • 在线客服

  • 返回顶部