微博 微信

Hao4K影音

电影频道
电影封面:
片  名: Leaving.Tracks 4k
电影分类: 纪录片 
国  家: 美国 
年  代: 2021年
分 辨 率: 4K(3840x2160)
电影格式: MKV|REMUX 
画质标准: SDR 
音质编码: Dolby Digital Audio 
电影声道: 5.1声道 
帧数/FPS: 23.976 帧
电影语言: 英文原版 
资源大小: 7.75 GB
导  演: 尼克戴维斯
豆瓣评分: 0 分
中文字幕: -
剧情简介: LEAVING TRACKS tells the intimate and compelling story of the founder of the Haas Moto Museum, and his immense impact on the lives of the custom builders whose masterpieces elevate the Museum to the pinnacle of its industry. Beneath his success as a financier and Nat Geo photographer, Bobby Haas grapples with a lifetime of trauma in his quest to create a museum like no other. The film probes the surprising affection that develops between the founder and the custom builders, who are united by their shared chase for perfection. Embedded in the Museum\'s rolling works of art that exude danger and speed are the universal challenges of human endeavor.
Leaving.Tracks.2021.2160p.WEB-DL.x265.10bit.SDR.DD5.1-4k纪录片信息
  1. Video
  2. ID : 1
  3. Format : HEVC
  4. Format/Info : High Efficiency Video Coding
  5. Format profile : Main 10@L5@High
  6. Codec ID : V_MPEGH/ISO/HEVC
  7. Duration : 1 h 30 min
  8. Bit rate : 11.9 Mb/s
  9. Width : 3 836 pixels
  10. Height : 2 156 pixels
  11. Display aspect ratio : 16:9
  12. Frame rate mode : Constant
  13. Frame rate : 23.976 (24000/1001) FPS
  14. Color space : YUV
  15. Chroma subsampling : 4:2:0
  16. Bit depth : 10 bits
  17. Bits/(Pixel*Frame) : 0.060
  18. Stream size : 7.50 GiB (97%)
  19. Language : English
  20. Default : Yes
  21. Forced : No
  22. Color range : Limited
  23. Color primaries : BT.709
  24. Transfer characteristics : BT.709
  25. Matrix coefficients : BT.709

  26. Audio
  27. ID : 2
  28. Format : AC-3
  29. Format/Info : Audio Coding 3
  30. Commercial name : Dolby Digital
  31. Codec ID : A_AC3
  32. Duration : 1 h 30 min
  33. Bit rate mode : Constant
  34. Bit rate : 384 kb/s
  35. Channel(s) : 6 channels
  36. Channel layout : L R C LFE Ls Rs
  37. Sampling rate : 48.0 kHz
  38. Frame rate : 31.250 FPS (1536 SPF)
  39. Compression mode : Lossy
  40. Stream size : 249 MiB (3%)
  41. Language : English
  42. Service kind : Complete Main
  43. Default : Yes
  44. Forced : No

  45. Text #1
  46. ID : 3
  47. Format : UTF-8
  48. Codec ID : S_TEXT/UTF8
  49. Codec ID/Info : UTF-8 Plain Text
  50. Duration : 1 h 29 min
  51. Bit rate : 84 b/s
  52. Count of elements : 1419
  53. Stream size : 55.3 KiB (0%)
  54. Language : German
  55. Default : No
  56. Forced : No

  57. Text #2
  58. ID : 4
  59. Format : UTF-8
  60. Codec ID : S_TEXT/UTF8
  61. Codec ID/Info : UTF-8 Plain Text
  62. Duration : 1 h 15 min
  63. Bit rate : 1 b/s
  64. Count of elements : 30
  65. Stream size : 1.05 KiB (0%)
  66. Language : English
  67. Default : Yes
  68. Forced : Yes

  69. Text #3
  70. ID : 5
  71. Format : UTF-8
  72. Codec ID : S_TEXT/UTF8
  73. Codec ID/Info : UTF-8 Plain Text
  74. Duration : 1 h 29 min
  75. Bit rate : 81 b/s
  76. Count of elements : 1424
  77. Stream size : 53.2 KiB (0%)
  78. Language : French
  79. Default : No
  80. Forced : No

  81. Text #4
  82. ID : 6
  83. Format : UTF-8
  84. Codec ID : S_TEXT/UTF8
  85. Codec ID/Info : UTF-8 Plain Text
  86. Duration : 1 h 30 min
  87. Bit rate : 89 b/s
  88. Count of elements : 1420
  89. Stream size : 59.4 KiB (0%)
  90. Language : Indonesian
  91. Default : No
  92. Forced : No

  93. Text #5
  94. ID : 7
  95. Format : UTF-8
  96. Codec ID : S_TEXT/UTF8
  97. Codec ID/Info : UTF-8 Plain Text
  98. Duration : 1 h 29 min
  99. Bit rate : 83 b/s
  100. Count of elements : 1424
  101. Stream size : 54.5 KiB (0%)
  102. Language : Italian
  103. Default : No
  104. Forced : No

  105. Text #6
  106. ID : 8
  107. Format : UTF-8
  108. Codec ID : S_TEXT/UTF8
  109. Codec ID/Info : UTF-8 Plain Text
  110. Duration : 1 h 30 min
  111. Bit rate : 90 b/s
  112. Count of elements : 1466
  113. Stream size : 60.0 KiB (0%)
  114. Language : Japanese
  115. Default : No
  116. Forced : No

  117. Text #7
  118. ID : 9
  119. Format : UTF-8
  120. Codec ID : S_TEXT/UTF8
  121. Codec ID/Info : UTF-8 Plain Text
  122. Duration : 1 h 29 min
  123. Bit rate : 85 b/s
  124. Count of elements : 1427
  125. Stream size : 55.9 KiB (0%)
  126. Language : Portuguese
  127. Default : No
  128. Forced : No

  129. Text #8
  130. ID : 10
  131. Format : UTF-8
  132. Codec ID : S_TEXT/UTF8
  133. Codec ID/Info : UTF-8 Plain Text
  134. Duration : 1 h 30 min
  135. Bit rate : 79 b/s
  136. Count of elements : 1424
  137. Stream size : 52.5 KiB (0%)
  138. Language : Spanish
  139. Default : No
  140. Forced : No

  141. Text #9
  142. ID : 11
  143. Format : UTF-8
  144. Codec ID : S_TEXT/UTF8
  145. Codec ID/Info : UTF-8 Plain Text
  146. Duration : 1 h 30 min
  147. Bit rate : 229 b/s
  148. Count of elements : 1446
  149. Stream size : 152 KiB (0%)
  150. Language : Thai
  151. Default : No
  152. Forced : No

  153. Text #10
  154. ID : 12
  155. Format : UTF-8
  156. Codec ID : S_TEXT/UTF8
  157. Codec ID/Info : UTF-8 Plain Text
  158. Duration : 1 h 29 min
  159. Bit rate : 118 b/s
  160. Count of elements : 1425
  161. Stream size : 77.8 KiB (0%)
  162. Language : Vietnamese
  163. Default : No
  164. Forced : No
复制代码

Leaving.Tracks.2021.2160p.WEB-DL.x265.10bit.SDR.DD5.1-4k纪录片下载
Leaving.Tracks.2021.2160p.WEB-DL.x265.10bit.SDR.DD5.1【7.75GB】
[Hao4k]Leaving.Tracks.2021.2160p.WEB-DL.x265.10bit.SDR.DD5.1-ROCCaT.torrent (20 KB)
回复

使用道具 举报

全部回复13

dyczw 发表于 2021-7-14 06:54:41

dyczw 2

2021-7-14 06:54:41

文件很小,码率应该很低
回复 支持 反对

使用道具 举报

月光麦田 发表于 2021-7-14 08:35:33

月光麦田 3

2021-7-14 08:35:33

谢谢分享

免费评分

参与人数 1违规 +1 收起 理由
花落无声 + 1 违反规则:多个主题回复相同内容(第五章第.

查看全部评分

回复 支持 反对

使用道具 举报

dk30129 发表于 2021-7-14 08:51:45

dk30129 4

2021-7-14 08:51:45

谢谢分享,顶你!!!
回复 支持 反对

使用道具 举报

dragon_walk 发表于 2021-7-14 09:07:54

dragon_walk 5

2021-7-14 09:07:54

最近纪录片不少啊。片荒。
回复 支持 反对

使用道具 举报

bbgrnnji 发表于 2021-7-14 11:10:02

bbgrnnji 6

2021-7-14 11:10:02

说的什么没看懂啊
回复 支持 反对

使用道具 举报

liuD 发表于 2021-7-14 12:06:37

liuD 7

2021-7-14 12:06:37

谢谢分享,看看!

免费评分

参与人数 1违规 +1 收起 理由
花落无声 + 1 违反论坛规则:多个主题回复相同内容(第五章第1条)

查看全部评分

回复 支持 反对

使用道具 举报

qqh4636931 发表于 2021-7-14 13:43:48

qqh4636931 8

2021-7-14 13:43:48

人过留名,雁过留声。
回复 支持 反对

使用道具 举报

liyun80000 发表于 2021-7-14 14:16:47

liyun80000 9

2021-7-14 14:16:47

谢谢楼主的分享

免费评分

参与人数 1违规 +1 收起 理由
hao4k + 1 违反规则:多个主题回复相同内容(第五章第1条)

查看全部评分

回复 支持 反对

使用道具 举报

dwman 发表于 2021-7-14 17:54:53

dwman 10

2021-7-14 17:54:53

估计没有字幕吧。。。
回复 支持 反对

使用道具 举报

arsonchan 发表于 7 天前

arsonchan 11

7 天前

Very Good! Thank you so much
回复 支持 反对

使用道具 举报

小鸭子 发表于 7 天前

小鸭子 12

7 天前

大片啊,好看
回复 支持 反对

使用道具 举报

秋雨孤灯 发表于 6 天前

秋雨孤灯 13

6 天前

《留下足迹》讲述了哈斯·莫托博物馆创始人的亲密而引人入胜的故事,以及他对定制建设者生活的巨大影响,这些建设者的杰作将博物馆提升到了行业的顶峰。在他作为金融家和国家地理摄影师的成功背后,鲍比·哈斯(Bobby Haas)在寻求建立一个独一无二的博物馆的过程中,与一生的创伤作斗争。影片探讨了创办人和定制设计师之间令人惊讶的感情,他们因共同追求完美而团结在一起。在博物馆的滚动艺术作品中,散发着危险和速度,这是人类努力的普遍挑战。
回复 支持 反对

使用道具 举报

zsad 发表于 前天 12:55

zsad 14

前天 12:55

谢谢楼主分享
回复 支持 反对

使用道具 举报

   发表回复

您需要登录后才可以回帖 登录 | 立即注册

返回列表 本版积分规则

  • 在线客服

  • 返回顶部