微博 微信

Hao4K影音

电影频道
电影封面:
片  名: Brewmance 4k
电影分类: 纪录片 
国  家: 美国 
年  代: 2021年
分 辨 率: 4K(3840x2160)
电影格式: MKV|REMUX 
画质标准: SDR 
音质编码: Dolby Digital Audio 
电影声道: 5.1声道 
帧数/FPS: 23.976 帧
电影语言: 英文原版 
资源大小: 8.67 GB
导  演: Christo Brock
豆瓣评分:
中文字幕: -
剧情简介: Craft Beer began with a group of restless home-brewers searching for something real and flavorful; it\'s become a global phenomenon of taste. That spirit of rebellion and innovation exists in two groups of home-brewers from Long Beach, California who will soon open their own breweries. With the help of iconic brewers Ken Grossman, Charlie Papazian, Vinnie Cilurzo, Sam Calagione, Jim Koch and others, the soul of craft beer is finally revealed.
Brewmance.2021.2160p.WEB-DL.x265.10bit.SDR.DD5.1-4k纪录片信息
  1. Video
  2. ID : 1
  3. Format : HEVC
  4. Format/Info : High Efficiency Video Coding
  5. Format profile : Main 10@L5@High
  6. Codec ID : V_MPEGH/ISO/HEVC
  7. Duration : 1 h 42 min
  8. Bit rate : 11.8 Mb/s
  9. Width : 3 840 pixels
  10. Height : 2 160 pixels
  11. Display aspect ratio : 16:9
  12. Frame rate mode : Constant
  13. Frame rate : 23.976 (24000/1001) FPS
  14. Color space : YUV
  15. Chroma subsampling : 4:2:0
  16. Bit depth : 10 bits
  17. Bits/(Pixel*Frame) : 0.059
  18. Stream size : 8.40 GiB (97%)
  19. Language : English
  20. Default : Yes
  21. Forced : No
  22. Color range : Limited
  23. Color primaries : BT.709
  24. Transfer characteristics : BT.709
  25. Matrix coefficients : BT.709

  26. Audio
  27. ID : 2
  28. Format : AC-3
  29. Format/Info : Audio Coding 3
  30. Commercial name : Dolby Digital
  31. Codec ID : A_AC3
  32. Duration : 1 h 42 min
  33. Bit rate mode : Constant
  34. Bit rate : 384 kb/s
  35. Channel(s) : 6 channels
  36. Channel layout : L R C LFE Ls Rs
  37. Sampling rate : 48.0 kHz
  38. Frame rate : 31.250 FPS (1536 SPF)
  39. Compression mode : Lossy
  40. Stream size : 281 MiB (3%)
  41. Language : English
  42. Service kind : Complete Main
  43. Default : Yes
  44. Forced : No
复制代码

Brewmance.2021.2160p.WEB-DL.x265.10bit.SDR.DD5.1-4k纪录片下载
Brewmance.2021.2160p.WEB-DL.x265.10bit.SDR.DD5.1【8.67GB】
[Hao4k]Brewmance.2021.2160p.WEB-DL.x265.10bit.SDR.DD5.1-ROCCaT.torrent (22.32 KB)
回复

使用道具 举报

全部回复8

dragon_walk 发表于 2021-7-14 09:08:44

dragon_walk 2

2021-7-14 09:08:44

关于啤酒的纪录片。值得下来看看
回复 支持 反对

使用道具 举报

leosoo 发表于 2021-7-14 09:22:43

leosoo 3

2021-7-14 09:22:43

这是什么纪录片?没看懂
回复 支持 反对

使用道具 举报

qqh4636931 发表于 2021-7-14 13:45:05

qqh4636931 4

2021-7-14 13:45:05

怎么最近连续几部纪录片!!!!
回复 支持 反对

使用道具 举报

baohai 发表于 2021-7-14 16:06:35

baohai 5

2021-7-14 16:06:35

简单翻译一下简介:                                                                                                                                                                                                                                          精酿啤酒始于一群不安分的家庭酿造者,他们在寻找一种真正可口的啤酒; 它已经成为一种全球性的品味现象。 这种叛逆和创新的精神存在于加利福尼亚州长滩市的两组自酿啤酒者身上,他们很快就会开自己的啤酒厂。 在著名酿酒师Ken Grossman, Charlie Papazian, Vinnie Cilurzo, Sam Calagione, Jim Koch等人的帮助下,精酿啤酒的灵魂终于被揭示出来。  
回复 支持 1 反对 0

使用道具 举报

wusongk 发表于 2021-7-14 17:41:57

wusongk 6

2021-7-14 17:41:57

谢谢楼主分享。

免费评分

参与人数 1违规 +1 收起 理由
花落无声 + 1 违反规则:多个主题回复相同内容(第五章第.

查看全部评分

回复 支持 反对

使用道具 举报

siankou 发表于 2021-7-16 08:27:54

siankou 7

2021-7-16 08:27:54

有字幕吗?
回复 支持 反对

使用道具 举报

kor98 发表于 2021-7-17 17:12:41

kor98 8

2021-7-17 17:12:41

纪录片的话,要学习一下。
回复 支持 反对

使用道具 举报

329748554 发表于 7 天前

329748554 9

7 天前

感谢翻译
回复 支持 反对

使用道具 举报

   发表回复

您需要登录后才可以回帖 登录 | 立即注册

返回列表 本版积分规则

  • 在线客服

  • 返回顶部